查看: 301|回復: 6
打印 上一主題 下一主題

[10bit.SDR] 變形金剛3/變形金剛3:黑月降臨 Transformers.Dark.of.the.Moon.2011.2160p.BluRay.x265.10bit.SDR.DTS-HD.MA.TrueHD.7.1.Atmos-SWTYBLZ 53.17GB

[復制鏈接]

 成長值: 3400

級別:資源管理組

注冊時間
2017-10-20
最后登錄
2019-12-9
聽眾
1
收聽
0
主題
88290
藍光幣
69434 枚
貢獻
12652 點
跳轉到指定樓層
樓主
發表于 2018-1-3 15:00:45 | 只看該作者 |只看大圖 回帖獎勵 |倒序瀏覽 |閱讀模式

◎譯  名 變形金剛3/變形金剛3:黑月降臨/變形金剛3:月黑之時/變形金剛 Ⅲ/變3
◎片  名 Transformers: Dark of the Moon
◎年  代 2011
◎產  地 美國
◎類  別 動作/科幻
◎語  言 英語/西班牙語/俄語/荷蘭語
◎上映日期 2011-06-29(美國)/2011-07-21(中國大陸)
◎IMDb評分  6.3/10 from 348,618 users
◎IMDb鏈接  http://www.imdb.com/title/tt1399103/
◎豆瓣評分 7.0/10 from 211,181 users
◎豆瓣鏈接 https://movie.douban.com/subject/3610047/
◎片  長 154分鐘
◎導  演 邁克爾·貝 Michael Bay
◎主  演 希亞·拉博夫 Shia LaBeouf
      羅茜·漢丁頓-惠特莉 Rosie Huntington-Whiteley
      喬什·杜哈明 Josh Duhamel
      泰瑞斯·吉布森 TyreseGBson
      約翰·馬爾科維奇 John Malkovich
      弗蘭西斯·麥克多蒙德 Frances McDormand
      鄭肯 Ken Jeong
      凱文·杜恩 Kevin Dunn (I)
      朱麗葉·懷特 Julie White (I)
      帕特里克·德姆西 Patrick Dempsey (I)
      艾倫·圖代克 Alan Tudyk

◎簡  介

  距今50多年前,一艘來自賽博坦的飛船墜落月球,由此引發了美蘇兩國的太空競賽。人類爭相登上月球,只為一探飛船殘骸中的秘密。時間回到21世紀初,經過幾番征戰,汽車人終于挫敗霸天虎的入侵,繼而與人類合作,共同保衛美麗的地球。然而發生在切爾諾貝利的事件卻將塵封已久的月球計劃重新擺到桌面。為了防止霸天虎找到能量柱為非作歹,擎天柱與戰友飛赴月球,更從當年的飛船中救出了汽車人的先代領導者——御天敵。御天敵是能量柱的發明者,將上百根能量柱集合在一起便可制造太空橋,實現物質的瞬間傳送。
  忙著找工作以及和女友卡莉(羅茜·漢丁頓-惠特莉Rosie Huntington-Whiteley 飾)經營愛情的山姆(希亞·拉博夫 Shia LaBeouf 飾)無可避免地卷入其中,他漸漸發現霸天虎的操縱一切的陰謀,卻不知更大的陰謀和危機隱藏在那月影背后……

◎獲獎情況

  第84屆奧斯卡金像獎  (2012)
  最佳視覺效果(提名) 斯科特·法勒   / Matthew E. Butler / 斯科特·波恩 / John Frazier
  最佳混音(提名) Jeffrey J. Haboush / 格雷格· P·羅素 / 加里·薩默斯 / Peter J. Devlin
  最佳音效剪輯(提名) Erik Aadahl / 伊桑·范德萊恩  

  第39屆動畫安妮獎  (2012)
  最佳真人電影動畫效果

  第32屆金酸莓獎  (2012)
  最差影片(提名)
  最差男配角(提名) 帕特里克·德姆西 / 鄭肯
  最差女配角(提名) 羅茜·漢丁頓-惠特莉
  最差導演(提名) 邁克爾·貝
  最差劇本(提名) 伊倫·克魯格
  最差銀幕群像(提名)
  最差銀幕搭檔(提名) 希亞·拉博夫 / 羅茜·漢丁頓-惠特莉

  第13屆美國青少年選擇獎  (2011)
  最佳暑期電影(提名)
  最佳暑期電影男演員(提名) 希亞·拉博夫
  最佳暑期電影女演員(提名) 羅茜·漢丁頓-惠特莉

  第2屆豆瓣電影鑫像獎  (2012)
  豆渣單元 最渣影片(外語)
  豆渣單元 最渣女演員(外語) 羅茜·漢丁頓-惠特莉



  1. Video
  2. ID                                       : 1
  3. Format                                   : HEVC
  4. Format/Info                              : High Efficiency Video Coding
  5. Format profile                           : Main [url=mailto:[email protected]][email protected][/url]@High
  6. Codec ID                                 : V_MPEGH/ISO/HEVC
  7. Duration                                 : 2 h 34 min
  8. Bit rate                                 : 39.5 Mb/s
  9. Width                                    : 3 840 pixels
  10. Height                                   : 1 600 pixels
  11. Display aspect ratio                     : 2.40:1
  12. Frame rate mode                          : Constant
  13. Frame rate                               : 23.976 (24000/1001) FPS
  14. Color space                              : YUV
  15. Chroma subsampling                       : 4:2:0
  16. Bit depth                                : 10 bits
  17. Bits/(Pixel*Frame)                       : 0.268
  18. Stream size                              : 42.5GB (81%)
  19. Title                                    : Transformers.Dark.of.the.Moon.2011.2160p.BluRay.x265.10bit.SDR.DTS-HD.MA.TrueHD.7.1.Atmos-SWTYBLZ
  20. Writing library                          : x265 2.5+4-b4a5bcfe29c7:[Windows][GCC 4.9.3][64 bit] 10bit
  21. Encoding settings                        : cpuid=1173503 / frame-threads=16 / numa-pools=24,24,24,24 / wpp / no-pmode / no-pme / no-psnr / no-ssim / log-level=2 / input-csp=1 / input-res=3840x1600 / interlace=0 / total-frames=0 / level-idc=51 / high-tier=1 / uhd-bd=0 / ref=3 / no-allow-non-conformance / repeat-headers / annexb / aud / hrd / info / hash=0 / no-temporal-layers / no-open-gop / min-keyint=1 / keyint=24 / bframes=4 / b-adapt=2 / b-pyramid / bframe-bias=0 / rc-lookahead=25 / lookahead-slices=4 / scenecut=40 / no-intra-refresh / ctu=64 / min-cu-size=8 / no-rect / no-amp / max-tu-size=32 / tu-inter-depth=1 / tu-intra-depth=1 / limit-tu=0 / rdoq-level=0 / dynamic-rd=0.00 / no-ssim-rd / signhide / no-tskip / nr-intra=0 / nr-inter=0 / no-constrained-intra / strong-intra-smoothing / max-merge=2 / limit-refs=3 / no-limit-modes / me=1 / subme=2 / merange=57 / temporal-mvp / weightp / no-weightb / no-analyze-src-pics / deblock=0:0 / no-sao / no-sao-non-deblock / rd=3 / no-early-skip / rskip / no-fast-intra / no-tskip-fast / no-cu-lossless / no-b-intra / rdpenalty=0 / psy-rd=2.00 / psy-rdoq=0.00 / no-rd-refine / analysis-reuse-mode=0 / no-lossless / cbqpoffs=0 / crqpoffs=0 / rc=crf / crf=20.0 / qcomp=0.60 / qpstep=4 / stats-write=0 / stats-read=0 / vbv-maxrate=160000 / vbv-bufsize=160000 / vbv-init=0.9 / crf-max=0.0 / crf-min=0.0 / ipratio=1.40 / pbratio=1.30 / aq-mode=1 / aq-strength=1.00 / cutree / zone-count=0 / no-strict-cbr / qg-size=32 / no-rc-grain / qpmax=69 / qpmin=0 / no-const-vbv / sar=1 / overscan=0 / videoformat=5 / range=0 / colorprim=2 / transfer=2 / colormatrix=2 / chromaloc=0 / display-window=0 / max-cll=0,0 / min-luma=0 / max-luma=1023 / log2-max-poc-lsb=8 / vui-timing-info / vui-hrd-info / slices=1 / opt-qp-pps / opt-ref-list-length-pps / no-multi-pass-opt-rps / scenecut-bias=0.05 / no-opt-cu-delta-qp / no-aq-motion / no-hdr / no-hdr-opt / no-dhdr10-opt / analysis-reuse-level=5 / scale-factor=0 / refine-intra=0 / refine-inter=0 / refine-mv=0 / no-limit-sao / ctu-info=0
  22. Default                                  : Yes
  23. Forced                                   : No

  24. Audio #1
  25. ID                                       : 2
  26. Format                                   : TrueHD
  27. Format profile                           : TrueHD+Atmos / TrueHD
  28. Codec ID                                 : A_TRUEHD
  29. Duration                                 : 2 h 34 min
  30. Bit rate mode                            : Variable
  31. Bit rate                                 : 4 388 kb/s
  32. Maximum bit rate                         : 6 510 kb/s
  33. Channel(s)                               : Object Based / 8 channels
  34. Channel positions                        : Object Based / Front: L C R, Side: L R, Back: L R, LFE
  35. Sampling rate                            :  / 48.0 kHz
  36. Frame rate                               : 1 200.000 FPS (40 SPF)
  37. Compression mode                         : Lossless
  38. Stream size                              : 4.73GB (9%)
  39. Title                                    : Transformers.Dark.of.the.Moon.2011.2160p.BluRay.x265.10bit.SDR.DTS-HD.MA.TrueHD.7.1.Atmos-SWTYBLZ
  40. Language                                 : English
  41. Default                                  : Yes
  42. Forced                                   : No

  43. Audio #2
  44. ID                                       : 3
  45. Format                                   : DTS
  46. Format/Info                              : Digital Theater Systems
  47. Format profile                           : MA / Core
  48. Codec ID                                 : A_DTS
  49. Duration                                 : 2 h 34 min
  50. Bit rate mode                            : Variable / Constant
  51. Bit rate                                 : 4 165 kb/s / 1 509 kb/s
  52. Channel(s)                               : 8 channels / 6 channels
  53. Channel positions                        : Front: L C R, Side: L R, Back: L R, LFE / Front: L C R, Side: L R, LFE
  54. Sampling rate                            : 48.0 kHz
  55. Frame rate                               : 93.750 FPS (512 SPF)
  56. Bit depth                                : 24 bits
  57. Compression mode                         : Lossless / Lossy
  58. Stream size                              : 4.49GB (9%)
  59. Title                                    : Transformers.Dark.of.the.Moon.2011.2160p.BluRay.x265.10bit.SDR.DTS-HD.MA.TrueHD.7.1.Atmos-SWTYBLZ
  60. Language                                 : English
  61. Default                                  : No
  62. Forced                                   : No

  63. Audio #3
  64. ID                                       : 4
  65. Format                                   : AC-3
  66. Format/Info                              : Audio Coding 3
  67. Codec ID                                 : A_AC3
  68. Duration                                 : 2 h 34 min
  69. Bit rate mode                            : Constant
  70. Bit rate                                 : 640 kb/s
  71. Channel(s)                               : 6 channels
  72. Channel positions                        : Front: L C R, Side: L R, LFE
  73. Sampling rate                            : 48.0 kHz
  74. Frame rate                               : 31.250 FPS (1536 SPF)
  75. Bit depth                                : 16 bits
  76. Compression mode                         : Lossy
  77. Stream size                              : 707 MiB (1%)
  78. Title                                    : Transformers.Dark.of.the.Moon.2011.2160p.BluRay.x265.10bit.SDR.DTS-HD.MA.TrueHD.7.1.Atmos-SWTYBLZ
  79. Language                                 : English
  80. Service kind                             : Complete Main
  81. Default                                  : No
  82. Forced                                   : No

  83. Text #1
  84. ID                                       : 5
  85. Format                                   : UTF-8
  86. Codec ID                                 : S_TEXT/UTF8
  87. Codec ID/Info                            : UTF-8 Plain Text
  88. Duration                                 : 2 h 25 min
  89. Bit rate                                 : 68 b/s
  90. Count of elements                        : 2065
  91. Stream size                              : 73.1 KiB (0%)
  92. Title                                    : English-SRT
  93. Language                                 : English
  94. Default                                  : Yes
  95. Forced                                   : No

  96. Text #2
  97. ID                                       : 6
  98. Format                                   : PGS
  99. Muxing mode                              : zlib
  100. Codec ID                                 : S_HDMV/PGS
  101. Codec ID/Info                            : Picture based subtitle format used on BDs/HD-DVDs
  102. Duration                                 : 2 h 25 min
  103. Bit rate                                 : 41.1 kb/s
  104. Count of elements                        : 4136
  105. Stream size                              : 42.8 MiB (0%)
  106. Title                                    : English-PGS
  107. Language                                 : English
  108. Default                                  : No
  109. Forced                                   : No

  110. Text #3
  111. ID                                       : 7
  112. Format                                   : PGS
  113. Muxing mode                              : zlib
  114. Codec ID                                 : S_HDMV/PGS
  115. Codec ID/Info                            : Picture based subtitle format used on BDs/HD-DVDs
  116. Duration                                 : 2 h 33 min
  117. Bit rate                                 : 18.5 kb/s
  118. Count of elements                        : 3690
  119. Stream size                              : 20.4 MiB (0%)
  120. Title                                    : Arabic-PGS
  121. Language                                 : Arabic
  122. Default                                  : No
  123. Forced                                   : No

  124. Text #4
  125. ID                                       : 8
  126. Format                                   : PGS
  127. Muxing mode                              : zlib
  128. Codec ID                                 : S_HDMV/PGS
  129. Codec ID/Info                            : Picture based subtitle format used on BDs/HD-DVDs
  130. Duration                                 : 2 h 33 min
  131. Bit rate                                 : 27.1 kb/s
  132. Count of elements                        : 3692
  133. Stream size                              : 29.7 MiB (0%)
  134. Title                                    : Chinese-PGS
  135. Language                                 : Chinese
  136. Default                                  : No
  137. Forced                                   : No

  138. Text #5
  139. ID                                       : 9
  140. Format                                   : PGS
  141. Muxing mode                              : zlib
  142. Codec ID                                 : S_HDMV/PGS
  143. Codec ID/Info                            : Picture based subtitle format used on BDs/HD-DVDs
  144. Duration                                 : 2 h 33 min
  145. Bit rate                                 : 31.8 kb/s
  146. Count of elements                        : 3226
  147. Stream size                              : 35.0 MiB (0%)
  148. Title                                    : Czech-PGS
  149. Language                                 : Czech
  150. Default                                  : No
  151. Forced                                   : No

  152. Text #6
  153. ID                                       : 10
  154. Format                                   : PGS
  155. Muxing mode                              : zlib
  156. Codec ID                                 : S_HDMV/PGS
  157. Codec ID/Info                            : Picture based subtitle format used on BDs/HD-DVDs
  158. Duration                                 : 2 h 33 min
  159. Bit rate                                 : 30.5 kb/s
  160. Count of elements                        : 3702
  161. Stream size                              : 33.6 MiB (0%)
  162. Title                                    : Danish-PGS
  163. Language                                 : Danish
  164. Default                                  : No
  165. Forced                                   : No

  166. Text #7
  167. ID                                       : 11
  168. Format                                   : PGS
  169. Muxing mode                              : zlib
  170. Codec ID                                 : S_HDMV/PGS
  171. Codec ID/Info                            : Picture based subtitle format used on BDs/HD-DVDs
  172. Duration                                 : 2 h 33 min
  173. Bit rate                                 : 40.4 kb/s
  174. Count of elements                        : 4162
  175. Stream size                              : 44.4 MiB (0%)
  176. Title                                    : German-PGS
  177. Language                                 : German
  178. Default                                  : No
  179. Forced                                   : No

  180. Text #8
  181. ID                                       : 12
  182. Format                                   : PGS
  183. Muxing mode                              : zlib
  184. Codec ID                                 : S_HDMV/PGS
  185. Codec ID/Info                            : Picture based subtitle format used on BDs/HD-DVDs
  186. Duration                                 : 2 h 33 min
  187. Bit rate                                 : 34.7 kb/s
  188. Count of elements                        : 3780
  189. Stream size                              : 38.1 MiB (0%)
  190. Title                                    : Greek-PGS
  191. Language                                 : Greek
  192. Default                                  : No
  193. Forced                                   : No

  194. Text #9
  195. ID                                       : 13
  196. Format                                   : PGS
  197. Muxing mode                              : zlib
  198. Codec ID                                 : S_HDMV/PGS
  199. Codec ID/Info                            : Picture based subtitle format used on BDs/HD-DVDs
  200. Duration                                 : 2 h 33 min
  201. Bit rate                                 : 35.9 kb/s
  202. Count of elements                        : 3808
  203. Stream size                              : 39.5 MiB (0%)
  204. Title                                    : Spanish-PGS
  205. Language                                 : Spanish
  206. Default                                  : No
  207. Forced                                   : No

  208. Text #10
  209. ID                                       : 14
  210. Format                                   : PGS
  211. Muxing mode                              : zlib
  212. Codec ID                                 : S_HDMV/PGS
  213. Codec ID/Info                            : Picture based subtitle format used on BDs/HD-DVDs
  214. Duration                                 : 2 h 33 min
  215. Bit rate                                 : 30.3 kb/s
  216. Count of elements                        : 3754
  217. Stream size                              : 33.3 MiB (0%)
  218. Title                                    : French-PGS
  219. Language                                 : French
  220. Default                                  : No
  221. Forced                                   : No

  222. Text #11
  223. ID                                       : 15
  224. Format                                   : PGS
  225. Muxing mode                              : zlib
  226. Codec ID                                 : S_HDMV/PGS
  227. Codec ID/Info                            : Picture based subtitle format used on BDs/HD-DVDs
  228. Duration                                 : 2 h 33 min
  229. Bit rate                                 : 31.0 kb/s
  230. Count of elements                        : 4174
  231. Stream size                              : 34.1 MiB (0%)
  232. Title                                    : Hindi-PGS
  233. Language                                 : Hindi
  234. Default                                  : No
  235. Forced                                   : No

  236. Text #12
  237. ID                                       : 16
  238. Format                                   : PGS
  239. Muxing mode                              : zlib
  240. Codec ID                                 : S_HDMV/PGS
  241. Codec ID/Info                            : Picture based subtitle format used on BDs/HD-DVDs
  242. Duration                                 : 2 h 33 min
  243. Bit rate                                 : 31.1 kb/s
  244. Count of elements                        : 3684
  245. Stream size                              : 34.2 MiB (0%)
  246. Title                                    : Icelandic-PGS
  247. Language                                 : Icelandic
  248. Default                                  : No
  249. Forced                                   : No

  250. Text #13
  251. ID                                       : 17
  252. Format                                   : PGS
  253. Muxing mode                              : zlib
  254. Codec ID                                 : S_HDMV/PGS
  255. Codec ID/Info                            : Picture based subtitle format used on BDs/HD-DVDs
  256. Duration                                 : 2 h 33 min
  257. Bit rate                                 : 33.2 kb/s
  258. Count of elements                        : 3792
  259. Stream size                              : 36.5 MiB (0%)
  260. Title                                    : Italian-PGS
  261. Language                                 : Italian
  262. Default                                  : No
  263. Forced                                   : No

  264. Text #14
  265. ID                                       : 18
  266. Format                                   : PGS
  267. Muxing mode                              : zlib
  268. Codec ID                                 : S_HDMV/PGS
  269. Codec ID/Info                            : Picture based subtitle format used on BDs/HD-DVDs
  270. Duration                                 : 2 h 25 min
  271. Bit rate                                 : 27.0 kb/s
  272. Count of elements                        : 3956
  273. Stream size                              : 28.2 MiB (0%)
  274. Title                                    : Japanese-PGS
  275. Language                                 : Japanese
  276. Default                                  : No
  277. Forced                                   : No

  278. Text #15
  279. ID                                       : 19
  280. Format                                   : PGS
  281. Muxing mode                              : zlib
  282. Codec ID                                 : S_HDMV/PGS
  283. Codec ID/Info                            : Picture based subtitle format used on BDs/HD-DVDs
  284. Duration                                 : 2 h 33 min
  285. Bit rate                                 : 19.3 kb/s
  286. Count of elements                        : 3688
  287. Stream size                              : 21.2 MiB (0%)
  288. Title                                    : Korean-PGS
  289. Language                                 : Korean
  290. Default                                  : No
  291. Forced                                   : No

  292. Text #16
  293. ID                                       : 20
  294. Format                                   : PGS
  295. Muxing mode                              : zlib
  296. Codec ID                                 : S_HDMV/PGS
  297. Codec ID/Info                            : Picture based subtitle format used on BDs/HD-DVDs
  298. Duration                                 : 2 h 33 min
  299. Bit rate                                 : 26.6 kb/s
  300. Count of elements                        : 4276
  301. Stream size                              : 29.2 MiB (0%)
  302. Title                                    : Chinese-PGS
  303. Language                                 : Chinese
  304. Default                                  : No
  305. Forced                                   : No

  306. Text #17
  307. ID                                       : 21
  308. Format                                   : PGS
  309. Muxing mode                              : zlib
  310. Codec ID                                 : S_HDMV/PGS
  311. Codec ID/Info                            : Picture based subtitle format used on BDs/HD-DVDs
  312. Duration                                 : 2 h 33 min
  313. Bit rate                                 : 31.1 kb/s
  314. Count of elements                        : 3222
  315. Stream size                              : 34.1 MiB (0%)
  316. Title                                    : Dutch-PGS
  317. Language                                 : Dutch
  318. Default                                  : No
  319. Forced                                   : No

  320. Text #18
  321. ID                                       : 22
  322. Format                                   : PGS
  323. Muxing mode                              : zlib
  324. Codec ID                                 : S_HDMV/PGS
  325. Codec ID/Info                            : Picture based subtitle format used on BDs/HD-DVDs
  326. Duration                                 : 2 h 33 min
  327. Bit rate                                 : 30.3 kb/s
  328. Count of elements                        : 3712
  329. Stream size                              : 33.3 MiB (0%)
  330. Title                                    : Norwegian-PGS
  331. Language                                 : Norwegian
  332. Default                                  : No
  333. Forced                                   : No

  334. Text #19
  335. ID                                       : 23
  336. Format                                   : PGS
  337. Muxing mode                              : zlib
  338. Codec ID                                 : S_HDMV/PGS
  339. Codec ID/Info                            : Picture based subtitle format used on BDs/HD-DVDs
  340. Duration                                 : 2 h 33 min
  341. Bit rate                                 : 34.5 kb/s
  342. Count of elements                        : 3704
  343. Stream size                              : 37.9 MiB (0%)
  344. Title                                    : Portuguese-PGS
  345. Language                                 : Portuguese
  346. Default                                  : No
  347. Forced                                   : No

  348. Text #20
  349. ID                                       : 24
  350. Format                                   : PGS
  351. Muxing mode                              : zlib
  352. Codec ID                                 : S_HDMV/PGS
  353. Codec ID/Info                            : Picture based subtitle format used on BDs/HD-DVDs
  354. Duration                                 : 2 h 33 min
  355. Bit rate                                 : 31.6 kb/s
  356. Count of elements                        : 3734
  357. Stream size                              : 34.7 MiB (0%)
  358. Title                                    : Romany-PGS
  359. Language                                 : rom
  360. Default                                  : No
  361. Forced                                   : No

  362. Text #21
  363. ID                                       : 25
  364. Format                                   : PGS
  365. Muxing mode                              : zlib
  366. Codec ID                                 : S_HDMV/PGS
  367. Codec ID/Info                            : Picture based subtitle format used on BDs/HD-DVDs
  368. Duration                                 : 2 h 33 min
  369. Bit rate                                 : 36.2 kb/s
  370. Count of elements                        : 4162
  371. Stream size                              : 39.7 MiB (0%)
  372. Title                                    : Slovak-PGS
  373. Language                                 : Slovak
  374. Default                                  : No
  375. Forced                                   : No

  376. Text #22
  377. ID                                       : 26
  378. Format                                   : PGS
  379. Muxing mode                              : zlib
  380. Codec ID                                 : S_HDMV/PGS
  381. Codec ID/Info                            : Picture based subtitle format used on BDs/HD-DVDs
  382. Duration                                 : 2 h 33 min
  383. Bit rate                                 : 36.4 kb/s
  384. Count of elements                        : 4162
  385. Stream size                              : 40.0 MiB (0%)
  386. Title                                    : Finnish-PGS
  387. Language                                 : Finnish
  388. Default                                  : No
  389. Forced                                   : No

  390. Text #23
  391. ID                                       : 27
  392. Format                                   : PGS
  393. Muxing mode                              : zlib
  394. Codec ID                                 : S_HDMV/PGS
  395. Codec ID/Info                            : Picture based subtitle format used on BDs/HD-DVDs
  396. Duration                                 : 2 h 33 min
  397. Bit rate                                 : 32.2 kb/s
  398. Count of elements                        : 3718
  399. Stream size                              : 35.4 MiB (0%)
  400. Title                                    : Swedish-PGS
  401. Language                                 : Swedish
  402. Default                                  : No
  403. Forced                                   : No

  404. Text #24
  405. ID                                       : 28
  406. Format                                   : PGS
  407. Muxing mode                              : zlib
  408. Codec ID                                 : S_HDMV/PGS
  409. Codec ID/Info                            : Picture based subtitle format used on BDs/HD-DVDs
  410. Duration                                 : 2 h 33 min
  411. Bit rate                                 : 25.6 kb/s
  412. Count of elements                        : 3692
  413. Stream size                              : 28.1 MiB (0%)
  414. Title                                    : Thai-PGS
  415. Language                                 : Thai
  416. Default                                  : No
  417. Forced                                   : No

  418. Text #25
  419. ID                                       : 29
  420. Format                                   : PGS
  421. Muxing mode                              : zlib
  422. Codec ID                                 : S_HDMV/PGS
  423. Codec ID/Info                            : Picture based subtitle format used on BDs/HD-DVDs
  424. Duration                                 : 2 h 33 min
  425. Bit rate                                 : 33.4 kb/s
  426. Count of elements                        : 3716
  427. Stream size                              : 36.7 MiB (0%)
  428. Title                                    : Turkish-PGS
  429. Language                                 : Turkish
  430. Default                                  : No
  431. Forced                                   : No

  432. Text #26
  433. ID                                       : 30
  434. Format                                   : PGS
  435. Muxing mode                              : zlib
  436. Codec ID                                 : S_HDMV/PGS
  437. Codec ID/Info                            : Picture based subtitle format used on BDs/HD-DVDs
  438. Duration                                 : 2 h 33 min
  439. Bit rate                                 : 38.5 kb/s
  440. Count of elements                        : 4164
  441. Stream size                              : 42.3 MiB (0%)
  442. Title                                    : Ukranian-PGS
  443. Language                                 : Ukrainian
  444. Default                                  : No
  445. Forced                                   : No

  446. Menu
  447. 00:00:00.000                             : en:Chapter 1
  448. 00:08:52.573                             : en:Chapter 2
  449. 00:14:26.615                             : en:Chapter 3
  450. 00:20:20.928                             : en:Chapter 4
  451. 00:28:48.143                             : en:Chapter 5
  452. 00:36:18.634                             : en:Chapter 6
  453. 00:45:18.549                             : en:Chapter 7
  454. 00:51:53.026                             : en:Chapter 8
  455. 00:56:34.224                             : en:Chapter 9
  456. 01:04:13.307                             : en:Chapter 10
  457. 01:12:56.705                             : en:Chapter 11
  458. 01:19:09.077                             : en:Chapter 12
  459. 01:23:41.391                             : en:Chapter 13
  460. 01:28:44.819                             : en:Chapter 14
  461. 01:35:13.082                             : en:Chapter 15
  462. 01:42:44.158                             : en:Chapter 16
  463. 01:49:12.337                             : en:Chapter 17
  464. 01:56:42.912                             : en:Chapter 18
  465. 02:04:59.116                             : en:Chapter 19
  466. 02:11:29.590                             : en:Chapter 20
  467. 02:19:10.884                             : en:Chapter 21
  468. 02:25:37.520                             : en:Chapter 22

復制代碼
復制代碼


                                                                                                


本帖隱藏的下載地址需要VIP會員才可瀏覽,您需要升級才可瀏覽,點擊這里升級VIP

分享到:  QQ好友和群QQ好友和群
收藏收藏
VIP會員免費任意下載本站所有資源!---點擊開通
回復

使用道具 舉報

級別:群眾演員 Lv.3

注冊時間
2018-5-18
最后登錄
2018-7-16
聽眾
8
收聽
0
主題
0
藍光幣
1 枚
貢獻
0 點
沙發
發表于 2018-7-7 15:03:12 | 只看該作者
變形金剛3/變形金剛3:黑月降臨 Transformers.Dark.of.the.Moon.2011.2160p.BluRay.x265.10bit.SDR.DTS-HD.MA.TrueHD.7.1.Atmos-SWTYBLZ
VIP會員免費任意下載本站所有資源!---點擊開通
回復

使用道具 舉報

級別:榮升主角 Lv.5

注冊時間
2018-7-29
最后登錄
2019-11-16
聽眾
13
收聽
0
主題
0
藍光幣
373 枚
貢獻
0 點
板凳
發表于 2018-8-20 19:27:28 | 只看該作者
謝謝分享
VIP會員免費任意下載本站所有資源!---點擊開通
回復

使用道具 舉報

級別:普通觀眾 Lv.2

注冊時間
2018-1-18
最后登錄
2018-9-1
聽眾
4
收聽
0
主題
0
藍光幣
6 枚
貢獻
0 點
地板
發表于 2018-8-25 17:48:02 | 只看該作者
非常好,,謝謝分享
VIP會員免費任意下載本站所有資源!---點擊開通
回復

使用道具 舉報

級別:群眾演員 Lv.3

注冊時間
2018-2-19
最后登錄
2019-11-30
聽眾
11
收聽
0
主題
0
藍光幣
100 枚
貢獻
0 點
5#
發表于 2018-9-16 21:54:33 | 只看該作者
4K藍光,謝謝,收下了.
VIP會員免費任意下載本站所有資源!---點擊開通
回復

使用道具 舉報

級別:群眾演員 Lv.3

注冊時間
2019-1-11
最后登錄
2019-9-12
聽眾
9
收聽
0
主題
0
藍光幣
113 枚
貢獻
0 點
QQ
6#
發表于 2019-1-22 18:18:13 | 只看該作者
為啥都沒資源呢?奇怪了
VIP會員免費任意下載本站所有資源!---點擊開通
回復

使用道具 舉報

 成長值: 5305

級別:尊貴的會員

注冊時間
2018-6-4
最后登錄
2019-12-6
聽眾
13
收聽
0
主題
0
藍光幣
96 枚
貢獻
0 點
7#
發表于 2019-10-31 15:38:35 | 只看該作者

這東西我收了!謝謝樓主!中國高清電影網真好!
VIP會員免費任意下載本站所有資源!---點擊開通
回復

使用道具 舉報

懶得打字嘛,點擊右側快捷回復 【右側內容,后臺自定義】
您需要登錄后才可以回帖 登錄 | 立即注冊

本版積分規則

QQ|Archiver|手機版|小黑屋| 中國高清網 |網站地圖

GMT+8, 2019-12-9 10:54 , Processed in 0.152331 second(s), 37 queries .

Powered by HDchina X3.4

Copyright 2017-2019©HDchina.All right reserved

返回頂部 聯系我們
胜负彩19080期