查看: 243|回復: 1
打印 上一主題 下一主題

[8bit.SDR] 諜影重重4/叛諜追擊4:機密逃殺 The.Bourne.Legacy.2012.2160p.BluRay.x264.8bit.SDR.DTS-X.7.1-SWTYBLZ 57.25GB

[復制鏈接]

 成長值: 3400

級別:資源管理組

注冊時間
2017-10-20
最后登錄
2019-12-9
聽眾
1
收聽
0
主題
88290
藍光幣
69434 枚
貢獻
12652 點
跳轉到指定樓層
樓主
發表于 2018-1-17 15:00:19 | 只看該作者 |只看大圖 回帖獎勵 |倒序瀏覽 |閱讀模式

◎譯  名 諜影重重4/叛諜追擊4:機密逃殺
◎片  名 The Bourne Legacy
◎年  代 2012
◎產  地 美國/日本
◎類  別 動作/懸疑/驚悚
◎語  言 英語/俄語/他加祿語
◎上映日期 2012-08-10(美國)/2012-10-25(中國大陸)
◎IMDb評分  6.7/10 from 253,152 users
◎IMDb鏈接  http://www.imdb.com/title/tt1194173/
◎豆瓣評分 6.7/10 from 97,054 users
◎豆瓣鏈接 https://movie.douban.com/subject/3001077/
◎片  長 135分鐘
◎導  演 托尼·吉爾羅伊 Tony Gilroy
◎主  演 杰瑞米·雷納 Jeremy Renner
      蕾切爾·薇茲 Rachel Weisz
      愛德華·諾頓 Edward Norton
      瓊·艾倫 Joan Allen
      奧斯卡·伊撒克 Oscar Isaac
      唐納·墨菲 Donna Murphy
      寇瑞·斯托爾 Corey Stoll
      大衛·斯特雷澤恩 David Strathairn

◎簡  介

  杰森·伯恩事件引起連鎖反應,踏腳石(Treadstone)計劃以及CIA用藥物控制強化特工的行徑通過報紙公之于眾,令其幕后人物坐立不安。為了阻止滿盤皆輸的局面出現,CIA高層決定中止該計劃,并將相關特工人員以及科學家從行動中抹殺。在此后的日子里,那些深藏在國家政治最底層、依靠藍綠藥丸執行各種絕密任務的特工相繼殞命,而負責染臟雙手的執行人——前美國空軍上校艾瑞克·貝爾(愛德華·諾頓 Edward Norton 飾),正慢慢將屠刀伸向隱藏在位于阿拉斯加崇山峻嶺、暴雪深山中的特工艾倫·克勞斯(杰瑞米·雷納 Jeremy Renner 飾)。
  突如其來的炮火襲擊令艾倫意識到自己所處的危險境地,在之后的日子里,他不僅要在昔日同伴的追殺中求生,還必須設法找到那曾為他提供源源不斷體能和智力的藍綠藥丸……



  1. Video
  2. ID                                       : 1
  3. Format                                   : AVC
  4. Format/Info                              : Advanced Video Codec
  5. Format profile                           : [url=mailto:[email protected]][email protected][/url]
  6. Format settings                          : CABAC / 5 Ref Frames
  7. Format settings, CABAC                   : Yes
  8. Format settings, RefFrames               : 5 frames
  9. Codec ID                                 : V_MPEG4/ISO/AVC
  10. Duration                                 : 2 h 14 min
  11. Bit rate                                 : 56.1 Mb/s
  12. Width                                    : 3 840 pixels
  13. Height                                   : 1 600 pixels
  14. Display aspect ratio                     : 2.40:1
  15. Frame rate mode                          : Constant
  16. Frame rate                               : 23.976 (24000/1001) FPS
  17. Color space                              : YUV
  18. Chroma subsampling                       : 4:2:0
  19. Bit depth                                : 8 bits
  20. Scan type                                : Progressive
  21. Bits/(Pixel*Frame)                       : 0.381
  22. Stream size                              : 52.1GB (92%)
  23. Title                                    : The.Bourne.Legacy.2012.2160p.BluRay.x264.8bit.SDR.DTS-X.7.1-SWTYBLZ
  24. Writing library                          : x264 core 148 r2748 97eaef2
  25. Encoding settings                        : cabac=1 / ref=5 / deblock=1:-1:-1 / analyse=0x3:0x113 / me=umh / subme=10 / psy=1 / psy_rd=1.00:0.15 / mixed_ref=1 / me_range=48 / chroma_me=1 / trellis=2 / 8x8dct=1 / cqm=0 / deadzone=21,11 / fast_pskip=1 / chroma_qp_offset=-3 / threads=50 / lookahead_threads=4 / sliced_threads=0 / nr=0 / decimate=0 / interlaced=0 / bluray_compat=0 / constrained_intra=0 / bframes=3 / b_pyramid=2 / b_adapt=2 / b_bias=0 / direct=3 / weightb=1 / open_gop=0 / weightp=2 / keyint=250 / keyint_min=23 / scenecut=40 / intra_refresh=0 / rc_lookahead=50 / rc=crf / mbtree=1 / crf=18.0 / qcomp=0.60 / qpmin=0 / qpmax=69 / qpstep=4 / ip_ratio=1.40 / aq=1:1.00
  26. Language                                 : English
  27. Default                                  : Yes
  28. Forced                                   : No

  29. Audio #1
  30. ID                                       : 2
  31. Format                                   : DTS
  32. Format/Info                              : Digital Theater Systems
  33. Format profile                           : X / MA / Core
  34. Codec ID                                 : A_DTS
  35. Duration                                 : 2 h 14 min
  36. Bit rate mode                            : Variable / Variable / Constant
  37. Bit rate                                 : 4 324 kb/s / 4 324 kb/s / 1 509 kb/s
  38. Channel(s)                               : Object Based / 8 channels / 6 channels
  39. Channel positions                        : Object Based / Front: L C R, Side: L R, Back: L R, LFE / Front: L C R, Side: L R, LFE
  40. Sampling rate                            :  / 48.0 kHz / 48.0 kHz
  41. Frame rate                               : 93.750 FPS (512 SPF)
  42. Bit depth                                :  / 24 bits / 24 bits
  43. Compression mode                         :  / Lossless / Lossy
  44. Stream size                              : 4.08GB (7%)
  45. Title                                    : The.Bourne.Legacy.2012.2160p.BluRay.x264.8bit.SDR.DTS-X.7.1-SWTYBLZ
  46. Language                                 : English
  47. Default                                  : Yes
  48. Forced                                   : No

  49. Audio #2
  50. ID                                       : 3
  51. Format                                   : AC-3
  52. Format/Info                              : Audio Coding 3
  53. Codec ID                                 : A_AC3
  54. Duration                                 : 2 h 14 min
  55. Bit rate mode                            : Constant
  56. Bit rate                                 : 640 kb/s
  57. Channel(s)                               : 6 channels
  58. Channel positions                        : Front: L C R, Side: L R, LFE
  59. Sampling rate                            : 48.0 kHz
  60. Frame rate                               : 31.250 FPS (1536 SPF)
  61. Bit depth                                : 16 bits
  62. Compression mode                         : Lossy
  63. Stream size                              : 618 MiB (1%)
  64. Title                                    : The.Bourne.Legacy.2012.2160p.BluRay.x264.8bit.SDR.DTS-X.7.1-SWTYBLZ
  65. Language                                 : English
  66. Service kind                             : Complete Main
  67. Default                                  : No
  68. Forced                                   : No

  69. Text #1
  70. ID                                       : 4
  71. Format                                   : UTF-8
  72. Codec ID                                 : S_TEXT/UTF8
  73. Codec ID/Info                            : UTF-8 Plain Text
  74. Duration                                 : 2 h 2 min
  75. Bit rate                                 : 54 b/s
  76. Count of elements                        : 1460
  77. Stream size                              : 49.2 KiB (0%)
  78. Title                                    : English-SRT
  79. Language                                 : English
  80. Default                                  : Yes
  81. Forced                                   : No

  82. Text #2
  83. ID                                       : 5
  84. Format                                   : PGS
  85. Muxing mode                              : zlib
  86. Codec ID                                 : S_HDMV/PGS
  87. Codec ID/Info                            : Picture based subtitle format used on BDs/HD-DVDs
  88. Duration                                 : 2 h 2 min
  89. Bit rate                                 : 38.7 kb/s
  90. Count of elements                        : 3174
  91. Stream size                              : 34.0 MiB (0%)
  92. Title                                    : English-PGS
  93. Language                                 : English
  94. Default                                  : No
  95. Forced                                   : No

  96. Text #3
  97. ID                                       : 6
  98. Format                                   : PGS
  99. Muxing mode                              : zlib
  100. Codec ID                                 : S_HDMV/PGS
  101. Codec ID/Info                            : Picture based subtitle format used on BDs/HD-DVDs
  102. Duration                                 : 2 h 14 min
  103. Bit rate                                 : 25.6 kb/s
  104. Count of elements                        : 2492
  105. Stream size                              : 24.6 MiB (0%)
  106. Title                                    : French-PGS
  107. Language                                 : French
  108. Default                                  : No
  109. Forced                                   : No

  110. Text #4
  111. ID                                       : 7
  112. Format                                   : PGS
  113. Muxing mode                              : zlib
  114. Codec ID                                 : S_HDMV/PGS
  115. Codec ID/Info                            : Picture based subtitle format used on BDs/HD-DVDs
  116. Duration                                 : 2 h 14 min
  117. Bit rate                                 : 25.7 kb/s
  118. Count of elements                        : 2246
  119. Stream size                              : 24.6 MiB (0%)
  120. Title                                    : Dutch-PGS
  121. Language                                 : Dutch
  122. Default                                  : No
  123. Forced                                   : No

  124. Text #5
  125. ID                                       : 8
  126. Format                                   : PGS
  127. Muxing mode                              : zlib
  128. Codec ID                                 : S_HDMV/PGS
  129. Codec ID/Info                            : Picture based subtitle format used on BDs/HD-DVDs
  130. Duration                                 : 2 h 14 min
  131. Bit rate                                 : 25.9 kb/s
  132. Count of elements                        : 2012
  133. Stream size                              : 24.8 MiB (0%)
  134. Title                                    : Danish-PGS
  135. Language                                 : Danish
  136. Default                                  : No
  137. Forced                                   : No

  138. Text #6
  139. ID                                       : 9
  140. Format                                   : PGS
  141. Muxing mode                              : zlib
  142. Codec ID                                 : S_HDMV/PGS
  143. Codec ID/Info                            : Picture based subtitle format used on BDs/HD-DVDs
  144. Duration                                 : 2 h 14 min
  145. Bit rate                                 : 23.4 kb/s
  146. Count of elements                        : 2322
  147. Stream size                              : 22.4 MiB (0%)
  148. Title                                    : Finnish-PGS
  149. Language                                 : Finnish
  150. Default                                  : No
  151. Forced                                   : No

  152. Text #7
  153. ID                                       : 10
  154. Format                                   : PGS
  155. Muxing mode                              : zlib
  156. Codec ID                                 : S_HDMV/PGS
  157. Codec ID/Info                            : Picture based subtitle format used on BDs/HD-DVDs
  158. Duration                                 : 2 h 14 min
  159. Bit rate                                 : 22.9 kb/s
  160. Count of elements                        : 2392
  161. Stream size                              : 21.9 MiB (0%)
  162. Title                                    : Norwegian-PGS
  163. Language                                 : Norwegian
  164. Default                                  : No
  165. Forced                                   : No

  166. Text #8
  167. ID                                       : 11
  168. Format                                   : PGS
  169. Muxing mode                              : zlib
  170. Codec ID                                 : S_HDMV/PGS
  171. Codec ID/Info                            : Picture based subtitle format used on BDs/HD-DVDs
  172. Duration                                 : 2 h 14 min
  173. Bit rate                                 : 26.3 kb/s
  174. Count of elements                        : 2060
  175. Stream size                              : 25.2 MiB (0%)
  176. Title                                    : Swedish-PGS
  177. Language                                 : Swedish
  178. Default                                  : No
  179. Forced                                   : No

  180. Text #9
  181. ID                                       : 12
  182. Format                                   : PGS
  183. Muxing mode                              : zlib
  184. Codec ID                                 : S_HDMV/PGS
  185. Codec ID/Info                            : Picture based subtitle format used on BDs/HD-DVDs
  186. Duration                                 : 2 h 14 min
  187. Bit rate                                 : 25.2 kb/s
  188. Count of elements                        : 1884
  189. Stream size                              : 24.2 MiB (0%)
  190. Title                                    : Czech-PGS
  191. Language                                 : Czech
  192. Default                                  : No
  193. Forced                                   : No

  194. Text #10
  195. ID                                       : 13
  196. Format                                   : PGS
  197. Muxing mode                              : zlib
  198. Codec ID                                 : S_HDMV/PGS
  199. Codec ID/Info                            : Picture based subtitle format used on BDs/HD-DVDs
  200. Duration                                 : 2 h 14 min
  201. Bit rate                                 : 25.2 kb/s
  202. Count of elements                        : 2776
  203. Stream size                              : 24.1 MiB (0%)
  204. Title                                    : Polish-PGS
  205. Language                                 : Polish
  206. Default                                  : No
  207. Forced                                   : No

  208. Text #11
  209. ID                                       : 14
  210. Format                                   : PGS
  211. Muxing mode                              : zlib
  212. Codec ID                                 : S_HDMV/PGS
  213. Codec ID/Info                            : Picture based subtitle format used on BDs/HD-DVDs
  214. Duration                                 : 2 h 14 min
  215. Bit rate                                 : 23.4 kb/s
  216. Count of elements                        : 2906
  217. Stream size                              : 22.4 MiB (0%)
  218. Title                                    : Thai-PGS
  219. Language                                 : Thai
  220. Default                                  : No
  221. Forced                                   : No

  222. Text #12
  223. ID                                       : 15
  224. Format                                   : PGS
  225. Muxing mode                              : zlib
  226. Codec ID                                 : S_HDMV/PGS
  227. Codec ID/Info                            : Picture based subtitle format used on BDs/HD-DVDs
  228. Duration                                 : 2 h 14 min
  229. Bit rate                                 : 27.2 kb/s
  230. Count of elements                        : 2152
  231. Stream size                              : 26.1 MiB (0%)
  232. Title                                    : Greek-PGS
  233. Language                                 : Greek
  234. Default                                  : No
  235. Forced                                   : No

  236. Text #13
  237. ID                                       : 16
  238. Format                                   : PGS
  239. Muxing mode                              : zlib
  240. Codec ID                                 : S_HDMV/PGS
  241. Codec ID/Info                            : Picture based subtitle format used on BDs/HD-DVDs
  242. Duration                                 : 2 h 14 min
  243. Bit rate                                 : 332 b/s
  244. Count of elements                        : 28
  245. Stream size                              : 327 KiB (0%)
  246. Title                                    : French-FORCED-PGS
  247. Language                                 : French
  248. Default                                  : No
  249. Forced                                   : No

  250. Menu
  251. 00:00:00.000                             : en:Chapter 1
  252. 00:08:44.690                             : en:Chapter 2
  253. 00:14:27.616                             : en:Chapter 3
  254. 00:19:58.488                             : en:Chapter 4
  255. 00:27:54.297                             : en:Chapter 5
  256. 00:34:19.265                             : en:Chapter 6
  257. 00:42:53.404                             : en:Chapter 7
  258. 00:47:58.375                             : en:Chapter 8
  259. 00:53:57.067                             : en:Chapter 9
  260. 01:00:30.168                             : en:Chapter 10
  261. 01:07:37.636                             : en:Chapter 11
  262. 01:14:37.973                             : en:Chapter 12
  263. 01:22:40.205                             : en:Chapter 13
  264. 01:28:38.688                             : en:Chapter 14
  265. 01:36:40.044                             : en:Chapter 15
  266. 01:41:06.685                             : en:Chapter 16
  267. 01:45:08.969                             : en:Chapter 17
  268. 01:52:16.521                             : en:Chapter 18
  269. 02:00:08.284                             : en:Chapter 19
  270. 02:05:07.416                             : en:Chapter 20

復制代碼
復制代碼


                                                                                                


本帖隱藏的下載地址需要VIP會員才可瀏覽,您需要升級才可瀏覽,點擊這里升級VIP

分享到:  QQ好友和群QQ好友和群
收藏收藏
VIP會員免費任意下載本站所有資源!---點擊開通
回復

使用道具 舉報

級別:初級觀眾 Lv.1

注冊時間
2019-11-1
最后登錄
2019-11-3
聽眾
0
收聽
0
主題
0
藍光幣
3 枚
貢獻
0 點
QQ
沙發
發表于 2019-11-1 23:24:28 | 只看該作者
不知道小內存的在哪個
VIP會員免費任意下載本站所有資源!---點擊開通
回復

使用道具 舉報

懶得打字嘛,點擊右側快捷回復 【右側內容,后臺自定義】
您需要登錄后才可以回帖 登錄 | 立即注冊

本版積分規則

QQ|Archiver|手機版|小黑屋| 中國高清網 |網站地圖

GMT+8, 2019-12-9 10:43 , Processed in 0.132416 second(s), 37 queries .

Powered by HDchina X3.4

Copyright 2017-2019©HDchina.All right reserved

返回頂部 聯系我們
胜负彩19080期