查看: 114|回復: 1
打印 上一主題 下一主題

[10bit.SDR] 在黑暗中講述的恐怖故事/在黑暗中說的鬼故事 Scary.Stories.to.Tell.in.the.Dark.2019.2160p.BluRay.x265.10bit.SDR.DTS-HD.MA.TrueHD.5.1-SWTYBLZ 20.60GB

[復制鏈接]

 成長值: 3400

級別:資源管理組

注冊時間
2017-10-20
最后登錄
2019-12-9
聽眾
1
收聽
0
主題
88290
藍光幣
69426 枚
貢獻
12652 點
跳轉到指定樓層
樓主
發表于 2019-10-30 17:28:54 | 只看該作者 |只看大圖 回帖獎勵 |倒序瀏覽 |閱讀模式


譯  名 在黑暗中講述的恐怖故事 / 在黑暗中說的鬼故事(臺) / 講鬼故(港) / 黑暗恐怖故事
片  名 Scary Stories to Tell in the Dark
年  代 2019
產  地 美國
類  別 恐怖
語  言 英語
上映日期 2019-08-09(美國)
IMDb評分  6.4/10 from 20523 users
IMDb鏈接  https://www.imdb.com/title/tt3387520
豆瓣評分 6.1/10 from 2971 users
豆瓣鏈接 https://movie.douban.com/subject/26278747/
片  長 108分鐘
導  演 安德烈·艾弗道夫 André ?vredal
編  劇 約翰·奧古斯特 John August / 馬庫斯·鄧斯坦 Marcus Dunstan / 丹·哈格曼 Dan Hageman / 凱文·哈格曼 Kevin Hageman / 帕特里克·梅爾頓 Patrick Melton / 艾爾文·史瓦茲 Alvin Schwartz / 吉爾莫·德爾·托羅 Guillermo del Toro
主  演 佐伊·瑪格麗特·科萊蒂 Zoe Margaret Colletti
       邁克爾·加爾扎 Michael Garza
       加布里埃爾·拉什 Gabriel Rush
       吉爾·貝羅斯 Gil Bellows
       哈維爾·博泰特 Javier Botet
       迪恩·諾里斯 Dean Norris
       洛萊妮·圖拿特 Lorraine Toussaint
       奧斯汀·艾布拉姆斯 Austin Abrams
       馬克·斯達格 Mark Steger
       斯蒂芬妮·貝爾丁 Stephanie Belding
       簡·莫凡特 Jane Moffat


標  簽 恐怖 | 驚悚 | 美國 | 2019 | 靈異 | 改編 | 在黑暗中講述的恐怖故事 | 科幻

簡  介  

  安德烈·艾弗道夫([無名女尸])接替吉爾莫·德爾·托羅執導[在黑暗中講述的恐怖故事],丹·哈格曼、凱文·哈格曼操刀劇本,CBS負責影片制作。而托羅將擔任制片人。該片根據艾文·施瓦茲的同名小說改編,故事圍繞一群年輕人展開,小鎮頻發死亡事件,他們必須找出背后的秘密。本片明年夏天開拍。
  1. Video
  2. ID                                       : 1
  3. Format                                   : HEVC
  4. Format/Info                              : High Efficiency Video Coding
  5. Format profile                           : Main [email protected]@High
  6. Codec ID                                 : V_MPEGH/ISO/HEVC
  7. Duration                                 : 1 h 47 min
  8. Bit rate                                 : 21.7 Mb/s
  9. Width                                    : 3 840 pixels
  10. Height                                   : 1 610 pixels
  11. Display aspect ratio                     : 2.40:1
  12. Frame rate mode                          : Constant
  13. Frame rate                               : 23.976 (24000/1001) FPS
  14. Color space                              : YUV
  15. Chroma subsampling                       : 4:2:0
  16. Bit depth                                : 10 bits
  17. Bits/(Pixel*Frame)                       : 0.146
  18. Stream size                              : 16.4 GiB (80%)
  19. Title                                    : Scary.Stories.to.Tell.in.the.Dark.2019.2160p.BluRay.x265.10bit.SDR.DTS-HD.MA.TrueHD.5.1-SWTYBLZ
  20. Writing library                          : x265 3.0ed72af837053:[Windows][GCC 8.2.0][64 bit] 10bit
  21. Encoding settings                        : cpuid=1111039 / frame-threads=16 / numa-pools=44,44 / wpp / no-pmode / no-pme / no-psnr / no-ssim / log-level=2 / input-csp=1 / input-res=3840x1610 / interlace=0 / total-frames=155276 / level-idc=51 / high-tier=1 / uhd-bd=0 / ref=3 / no-allow-non-conformance / repeat-headers / annexb / aud / hrd / info / hash=0 / no-temporal-layers / no-open-gop / min-keyint=1 / keyint=24 / gop-lookahead=0 / bframes=4 / b-adapt=2 / b-pyramid / bframe-bias=0 / rc-lookahead=25 / lookahead-slices=4 / scenecut=40 / radl=0 / no-splice / no-intra-refresh / ctu=64 / min-cu-size=8 / no-rect / no-amp / max-tu-size=32 / tu-inter-depth=1 / tu-intra-depth=1 / limit-tu=0 / rdoq-level=0 / dynamic-rd=0.00 / no-ssim-rd / signhide / no-tskip / nr-intra=0 / nr-inter=0 / no-constrained-intra / strong-intra-smoothing / max-merge=2 / limit-refs=3 / no-limit-modes / me=1 / subme=2 / merange=57 / temporal-mvp / weightp / no-weightb / no-analyze-src-pics / deblock=0:0 / no-sao / no-sao-non-deblock / rd=3 / no-early-skip / rskip / no-fast-intra / no-tskip-fast / no-cu-lossless / no-b-intra / no-splitrd-skip / rdpenalty=0 / psy-rd=2.00 / psy-rdoq=0.00 / no-rd-refine / no-lossless / cbqpoffs=0 / crqpoffs=0 / rc=crf / crf=16.0 / qcomp=0.60 / qpstep=4 / stats-write=0 / stats-read=0 / vbv-maxrate=160000 / vbv-bufsize=160000 / vbv-init=0.9 / crf-max=0.0 / crf-min=0.0 / ipratio=1.40 / pbratio=1.30 / aq-mode=1 / aq-strength=1.00 / cutree / zone-count=0 / no-strict-cbr / qg-size=32 / no-rc-grain / qpmax=69 / qpmin=0 / no-const-vbv / sar=1 / overscan=0 / videoformat=5 / range=0 / colorprim=2 / transfer=2 / colormatrix=2 / chromaloc=0 / display-window=0 / max-cll=0,0 / min-luma=0 / max-luma=1023 / log2-max-poc-lsb=8 / vui-timing-info / vui-hrd-info / slices=1 / opt-qp-pps / opt-ref-list-length-pps / no-multi-pass-opt-rps / scenecut-bias=0.05 / no-opt-cu-delta-qp / no-aq-motion / no-hdr / no-hdr-opt / no-dhdr10-opt / no-idr-recovery-sei / analysis-reuse-level=5 / scale-factor=0 / refine-intra=0 / refine-inter=0 / refine-mv=0 / refine-ctu-distortion=0 / no-limit-sao / ctu-info=0 / no-lowpass-dct / refine-analysis-type=0 / copy-pic=1 / max-ausize-factor=1.0 / no-dynamic-refine / no-single-sei / no-hevc-aq / qp-adaptation-range=1.00
  22. Default                                  : Yes
  23. Forced                                   : No

  24. Audio #1
  25. ID                                       : 2
  26. Format                                   : MLP FBA
  27. Format/Info                              : Meridian Lossless Packing FBA
  28. Commercial name                          : Dolby TrueHD
  29. Codec ID                                 : A_TRUEHD
  30. Duration                                 : 1 h 47 min
  31. Bit rate mode                            : Variable
  32. Bit rate                                 : 1 714 kb/s
  33. Maximum bit rate                         : 3 150 kb/s
  34. Channel(s)                               : 6 channels
  35. Channel layout                           : L R C LFE Ls Rs
  36. Sampling rate                            : 48.0 kHz
  37. Frame rate                               : 1 200.000 FPS (40 SPF)
  38. Compression mode                         : Lossless
  39. Stream size                              : 1.29 GiB (6%)
  40. Title                                    : Scary.Stories.to.Tell.in.the.Dark.2019.2160p.BluRay.x265.10bit.SDR.DTS-HD.MA.TrueHD.5.1-SWTYBLZ
  41. Language                                 : English
  42. Default                                  : Yes
  43. Forced                                   : No

  44. Audio #2
  45. ID                                       : 3
  46. Format                                   : DTS XLL
  47. Format/Info                              : Digital Theater Systems
  48. Commercial name                          : DTS-HD Master Audio
  49. Codec ID                                 : A_DTS
  50. Duration                                 : 1 h 47 min
  51. Bit rate mode                            : Variable
  52. Bit rate                                 : 3 061 kb/s
  53. Channel(s)                               : 6 channels
  54. Channel layout                           : C L R Ls Rs LFE
  55. Sampling rate                            : 48.0 kHz
  56. Frame rate                               : 93.750 FPS (512 SPF)
  57. Bit depth                                : 24 bits
  58. Compression mode                         : Lossless
  59. Stream size                              : 2.31 GiB (11%)
  60. Title                                    : Scary.Stories.to.Tell.in.the.Dark.2019.2160p.BluRay.x265.10bit.SDR.DTS-HD.MA.TrueHD.5.1-SWTYBLZ
  61. Language                                 : English
  62. Default                                  : No
  63. Forced                                   : No

  64. Audio #3
  65. ID                                       : 4
  66. Format                                   : AC-3
  67. Format/Info                              : Audio Coding 3
  68. Commercial name                          : Dolby Digital
  69. Codec ID                                 : A_AC3
  70. Duration                                 : 1 h 47 min
  71. Bit rate mode                            : Constant
  72. Bit rate                                 : 640 kb/s
  73. Channel(s)                               : 6 channels
  74. Channel layout                           : L R C LFE Ls Rs
  75. Sampling rate                            : 48.0 kHz
  76. Frame rate                               : 31.250 FPS (1536 SPF)
  77. Bit depth                                : 16 bits
  78. Compression mode                         : Lossy
  79. Stream size                              : 494 MiB (2%)
  80. Title                                    : Scary.Stories.to.Tell.in.the.Dark.2019.2160p.BluRay.x265.10bit.SDR.DTS-HD.MA.TrueHD.5.1-SWTYBLZ
  81. Language                                 : English
  82. Service kind                             : Complete Main
  83. Default                                  : No
  84. Forced                                   : No

  85. Text #1
  86. ID                                       : 5
  87. Format                                   : UTF-8
  88. Codec ID                                 : S_TEXT/UTF8
  89. Codec ID/Info                            : UTF-8 Plain Text
  90. Duration                                 : 1 h 39 min
  91. Bit rate                                 : 45 b/s
  92. Count of elements                        : 1244
  93. Stream size                              : 32.8 KiB (0%)
  94. Title                                    : English-SRT
  95. Language                                 : English
  96. Default                                  : Yes
  97. Forced                                   : No

  98. Text #2
  99. ID                                       : 6
  100. Format                                   : PGS
  101. Muxing mode                              : zlib
  102. Codec ID                                 : S_HDMV/PGS
  103. Codec ID/Info                            : Picture based subtitle format used on BDs/HD-DVDs
  104. Duration                                 : 1 h 43 min
  105. Bit rate                                 : 30.3 kb/s
  106. Count of elements                        : 2304
  107. Stream size                              : 22.5 MiB (0%)
  108. Title                                    : English-PGS
  109. Language                                 : English
  110. Default                                  : No
  111. Forced                                   : No

  112. Text #3
  113. ID                                       : 7
  114. Format                                   : PGS
  115. Muxing mode                              : zlib
  116. Codec ID                                 : S_HDMV/PGS
  117. Codec ID/Info                            : Picture based subtitle format used on BDs/HD-DVDs
  118. Duration                                 : 1 h 43 min
  119. Bit rate                                 : 36.0 kb/s
  120. Count of elements                        : 2630
  121. Stream size                              : 26.8 MiB (0%)
  122. Title                                    : English-SDH-PGS
  123. Language                                 : English
  124. Default                                  : No
  125. Forced                                   : No

  126. Text #4
  127. ID                                       : 8
  128. Format                                   : PGS
  129. Muxing mode                              : zlib
  130. Codec ID                                 : S_HDMV/PGS
  131. Codec ID/Info                            : Picture based subtitle format used on BDs/HD-DVDs
  132. Duration                                 : 1 h 39 min
  133. Bit rate                                 : 28.2 kb/s
  134. Count of elements                        : 2194
  135. Stream size                              : 20.1 MiB (0%)
  136. Title                                    : Spanish-PGS
  137. Language                                 : Spanish
  138. Default                                  : No
  139. Forced                                   : No

  140. Menu
  141. 00:00:00.000                             : en:Chapter 01
  142. 00:05:44.386                             : en:Chapter 02
  143. 00:13:23.052                             : en:Chapter 03
  144. 00:18:52.131                             : en:Chapter 04
  145. 00:25:34.742                             : en:Chapter 05
  146. 00:28:31.168                             : en:Chapter 06
  147. 00:36:17.300                             : en:Chapter 07
  148. 00:47:06.282                             : en:Chapter 08
  149. 00:54:17.171                             : en:Chapter 09
  150. 00:58:36.304                             : en:Chapter 10
  151. 01:02:36.378                             : en:Chapter 11
  152. 01:11:04.677                             : en:Chapter 12
  153. 01:17:59.425                             : en:Chapter 13
  154. 01:24:33.902                             : en:Chapter 14
  155. 01:29:53.179                             : en:Chapter 15
  156. 01:38:30.279                             : en:Chapter 16
復制代碼









本帖隱藏的下載地址需要VIP會員才可瀏覽,您需要升級才可瀏覽,點擊這里升級VIP
分享到:  QQ好友和群QQ好友和群
收藏收藏
VIP會員免費任意下載本站所有資源!---點擊開通
回復

使用道具 舉報

級別:專業龍套 Lv.4

注冊時間
2019-6-7
最后登錄
2019-12-7
聽眾
13
收聽
0
主題
0
藍光幣
370 枚
貢獻
0 點
QQ
沙發
發表于 2019-10-31 11:22:20 | 只看該作者

這東西我收了!謝謝樓主!中國高清電影網真好!
VIP會員免費任意下載本站所有資源!---點擊開通
回復

使用道具 舉報

懶得打字嘛,點擊右側快捷回復 【右側內容,后臺自定義】
您需要登錄后才可以回帖 登錄 | 立即注冊

本版積分規則

QQ|Archiver|手機版|小黑屋| 中國高清網 |網站地圖

GMT+8, 2019-12-9 10:25 , Processed in 0.197996 second(s), 37 queries .

Powered by HDchina X3.4

Copyright 2017-2019©HDchina.All right reserved

返回頂部 聯系我們
胜负彩19080期