查看: 278|回復: 2
打印 上一主題 下一主題

[10bit.HDR] 傲慢與偏見與僵尸/傲慢+偏見+僵尸 Pride.and.Prejudice.and.Zombies.2016.REPACK.2160p.UHD.BluRay.X265.10bit.HDR.TrueHD.7.1.Atmos-iNVANDRAREN 13.17GB

[復制鏈接]

 成長值: 3400

級別:資源管理組

注冊時間
2017-10-20
最后登錄
2019-12-9
聽眾
1
收聽
0
主題
88290
藍光幣
69436 枚
貢獻
12652 點
跳轉到指定樓層
樓主
發表于 2019-10-30 17:55:46 | 只看該作者 |只看大圖 回帖獎勵 |倒序瀏覽 |閱讀模式


譯  名 傲慢與偏見與僵尸 / 傲慢+偏見+僵尸(臺) / 傲慢與尸變(港)
片  名 Pride and Prejudice and Zombies
年  代 2016
產  地 美國 / 英國
類  別 動作 / 愛情 / 恐怖
語  言 英語
上映日期 2016-02-05(美國)
IMDb評分  5.8/10 from 47005 users
IMDb鏈接  http://www.imdb.com/title/tt1374989
豆瓣評分 5.6/10 from 19999 users
豆瓣鏈接 https://movie.douban.com/subject/3543318/
片  長 107分鐘
導  演 布爾·斯蒂爾斯 Burr Steers
編  劇 布爾·斯蒂爾斯 Burr Steers / 賽斯·格雷厄姆-史密斯 Seth Grahame-Smith / 簡·奧斯汀 Jane Austen
主  演 莉莉·詹姆斯 Lily James
       薩姆·賴利 Sam Riley
       杰克·休斯頓 Jack Huston
       貝拉·希思科特 Bella Heathcote
       道格拉斯·布斯 Douglas Booth
       馬特·史密斯 Matt Smith
       查爾斯·丹斯 Charles Dance
       琳娜·海蒂 Lena Headey
       蘇琪·沃特豪斯 Suki Waterhouse
       艾瑪·格林威爾 Emma Greenwell
       埃斯林·洛福斯 Aisling Loftus
       莎莉·菲利普斯 Sally Phillips
       艾麗·巴姆博 Ellie Bamber
       米莉·布拉迪 Millie Brady


標  簽 僵尸 | 美國 | 愛情 | 喜劇 | 2016 | 惡搞 | 驚悚 | 恐怖

簡  介  

  不列顛向全世界擴張,他們在帶回可觀財富的同時,也帶回了可怕的瘟疫。僵尸病毒旋即在英國肆虐,為了生存上流社會的貴族小姐們也不得不妹習日本或中國武功保護自己。不久前爆發過僵尸騷亂的尼日斐莊園迎來新的主人查爾斯·賓利(道格拉斯·布斯 Douglas Booth 飾),住在隔壁的班納特夫人第一時間帶著五位身懷絕技且貌美如花的女兒去參加對方的晚宴,渴望建立一段美好的姻緣。晚宴之上,簡·班納特(貝拉·希思科特 Bella Heathcote 飾)與賓利互有好感,伊麗莎白(莉莉·詹姆斯 Lily James 飾)則和賓利的好友上校達西(薩姆·賴利 Sam Riley 飾)因為各種緣由而相互厭惡。
  喪尸危機接連爆發,達西將與伊麗莎白在戰斗中加深理解……

  1. Video
  2. ID                                       : 1
  3. Format                                   : HEVC
  4. Format/Info                              : High Efficiency Video Coding
  5. Format profile                           : Main [email protected]@High
  6. HDR format                               : SMPTE ST 2086, HDR10 compatible
  7. Codec ID                                 : V_MPEGH/ISO/HEVC
  8. Duration                                 : 1 h 47 min
  9. Bit rate                                 : 11.9 Mb/s
  10. Width                                    : 3 840 pixels
  11. Height                                   : 1 600 pixels
  12. Display aspect ratio                     : 2.40:1
  13. Frame rate mode                          : Constant
  14. Frame rate                               : 23.976 (24000/1001) FPS
  15. Color space                              : YUV
  16. Chroma subsampling                       : 4:2:0 (Type 2)
  17. Bit depth                                : 10 bits
  18. Bits/(Pixel*Frame)                       : 0.081
  19. Stream size                              : 8.96 GiB (69%)
  20. Writing library                          : x265 2.6+27-2f3c4158cf35:[Windows][GCC 7.2.0][64 bit] 10bit
  21. Encoding settings                        : cpuid=1173503 / frame-threads=3 / numa-pools=8 / wpp / no-pmode / no-pme / no-psnr / no-ssim / log-level=2 / input-csp=1 / input-res=3840x1600 / interlace=0 / total-frames=0 / level-idc=51 / high-tier=1 / uhd-bd=0 / ref=4 / no-allow-non-conformance / repeat-headers / annexb / aud / hrd / info / hash=0 / no-temporal-layers / no-open-gop / min-keyint=23 / keyint=240 / gop-lookahead=0 / bframes=4 / b-adapt=2 / b-pyramid / bframe-bias=0 / rc-lookahead=25 / lookahead-slices=4 / scenecut=40 / radl=0 / no-intra-refresh / ctu=64 / min-cu-size=8 / rect / no-amp / max-tu-size=32 / tu-inter-depth=1 / tu-intra-depth=1 / limit-tu=0 / rdoq-level=2 / dynamic-rd=0.00 / no-ssim-rd / signhide / no-tskip / nr-intra=0 / nr-inter=0 / no-constrained-intra / no-strong-intra-smoothing / max-merge=3 / limit-refs=3 / limit-modes / me=3 / subme=3 / merange=57 / temporal-mvp / weightp / no-weightb / no-analyze-src-pics / deblock=-3:-3 / no-sao / no-sao-non-deblock / rd=4 / no-early-skip / rskip / no-fast-intra / no-tskip-fast / no-cu-lossless / no-b-intra / no-splitrd-skip / rdpenalty=0 / psy-rd=2.00 / psy-rdoq=1.00 / no-rd-refine / no-lossless / cbqpoffs=0 / crqpoffs=0 / rc=crf / crf=17.0 / qcomp=0.60 / qpstep=4 / stats-write=0 / stats-read=0 / vbv-maxrate=160000 / vbv-bufsize=160000 / vbv-init=0.9 / crf-max=0.0 / crf-min=0.0 / ipratio=1.40 / pbratio=1.30 / aq-mode=1 / aq-strength=1.00 / cutree / zone-count=0 / no-strict-cbr / qg-size=32 / no-rc-grain / qpmax=69 / qpmin=0 / no-const-vbv / sar=1 / overscan=0 / videoformat=5 / range=0 / colorprim=9 / transfer=16 / colormatrix=9 / chromaloc=1 / chromaloc-top=2 / chromaloc-bottom=2 / display-window=0 / master-display=G(13250,34500)B(7500,3000)R(34000,16000)WP(15635,16450)L(40000000,50) / max-cll=1035,726 / min-luma=0 / max-luma=1023 / log2-max-poc-lsb=8 / vui-timing-info / vui-hrd-info / slices=1 / opt-qp-pps / opt-ref-list-length-pps / no-multi-pass-opt-rps / scenecut-bias=0.05 / no-opt-cu-delta-qp / no-aq-motion / hdr / hdr-opt / no-dhdr10-opt / analysis-save=(null) / analysis-load=(null) / analysis-reuse-level=5 / scale-factor=0 / refine-intra=0 / refine-inter=0 / refine-mv=0 / no-limit-sao / ctu-info=0 / no-lowpass-dct / refine-mv-type=0 / copy-pic=1
  22. Language                                 : English
  23. Default                                  : Yes
  24. Forced                                   : No
  25. Color range                              : Limited
  26. Color primaries                          : BT.2020
  27. Transfer characteristics                 : PQ
  28. Matrix coefficients                      : BT.2020 non-constant
  29. Mastering display color primaries        : Display P3
  30. Mastering display luminance              : min: 0.0050 cd/m2, max: 4000 cd/m2
  31. Maximum Content Light Level              : 1035 cd/m2
  32. Maximum Frame-Average Light Level        : 726 cd/m2

  33. Audio #1
  34. ID                                       : 2
  35. Format                                   : MLP FBA 16-ch
  36. Format/Info                              : Meridian Lossless Packing FBA with 16-channel presentation
  37. Commercial name                          : Dolby TrueHD with Dolby Atmos
  38. Codec ID                                 : A_TRUEHD
  39. Duration                                 : 1 h 47 min
  40. Bit rate mode                            : Variable
  41. Bit rate                                 : 4 625 kb/s
  42. Maximum bit rate                         : 8 193 kb/s
  43. Channel(s)                               : 8 channels
  44. Channel layout                           : L R C LFE Ls Rs Lb Rb
  45. Sampling rate                            : 48.0 kHz
  46. Frame rate                               : 1 200.000 FPS (40 SPF)
  47. Compression mode                         : Lossless
  48. Stream size                              : 3.47 GiB (27%)
  49. Title                                    : Atmos
  50. Language                                 : English
  51. Default                                  : Yes
  52. Forced                                   : No
  53. Number of dynamic objects                : 11
  54. Bed channel count                        : 1 channel
  55. Bed channel configuration                : LFE

  56. Audio #2
  57. ID                                       : 3
  58. Format                                   : AC-3
  59. Format/Info                              : Audio Coding 3
  60. Codec ID                                 : A_AC3
  61. Duration                                 : 1 h 47 min
  62. Bit rate                                 : 640 kb/s
  63. Channel(s)                               : 6 channels
  64. Sampling rate                            : 48.0 kHz
  65. Frame rate                               : 31.250 FPS (1536 SPF)
  66. Compression mode                         : Lossy
  67. Stream size                              : 492 MiB (4%)
  68. Title                                    : AC3 5.1
  69. Language                                 : English
  70. Default                                  : No
  71. Forced                                   : No

  72. Text #1
  73. ID                                       : 4
  74. Format                                   : PGS
  75. Muxing mode                              : zlib
  76. Codec ID                                 : S_HDMV/PGS
  77. Codec ID/Info                            : Picture based subtitle format used on BDs/HD-DVDs
  78. Duration                                 : 1 h 46 min
  79. Bit rate                                 : 42.2 kb/s
  80. Count of elements                        : 2974
  81. Stream size                              : 32.2 MiB (0%)
  82. Title                                    : English SDH
  83. Language                                 : English
  84. Default                                  : No
  85. Forced                                   : No

  86. Text #2
  87. ID                                       : 5
  88. Format                                   : PGS
  89. Muxing mode                              : zlib
  90. Codec ID                                 : S_HDMV/PGS
  91. Codec ID/Info                            : Picture based subtitle format used on BDs/HD-DVDs
  92. Duration                                 : 1 h 46 min
  93. Bit rate                                 : 37.2 kb/s
  94. Count of elements                        : 2588
  95. Stream size                              : 28.4 MiB (0%)
  96. Title                                    : English Regular
  97. Language                                 : English
  98. Default                                  : No
  99. Forced                                   : No

  100. Text #3
  101. ID                                       : 6
  102. Format                                   : PGS
  103. Muxing mode                              : zlib
  104. Codec ID                                 : S_HDMV/PGS
  105. Codec ID/Info                            : Picture based subtitle format used on BDs/HD-DVDs
  106. Duration                                 : 1 h 46 min
  107. Bit rate                                 : 35.7 kb/s
  108. Count of elements                        : 2614
  109. Stream size                              : 27.3 MiB (0%)
  110. Title                                    : Danish
  111. Language                                 : Danish
  112. Default                                  : No
  113. Forced                                   : No

  114. Text #4
  115. ID                                       : 7
  116. Format                                   : PGS
  117. Muxing mode                              : zlib
  118. Codec ID                                 : S_HDMV/PGS
  119. Codec ID/Info                            : Picture based subtitle format used on BDs/HD-DVDs
  120. Duration                                 : 1 h 46 min
  121. Bit rate                                 : 32.1 kb/s
  122. Count of elements                        : 2270
  123. Stream size                              : 24.5 MiB (0%)
  124. Title                                    : Finnish
  125. Language                                 : Finnish
  126. Default                                  : No
  127. Forced                                   : No

  128. Text #5
  129. ID                                       : 8
  130. Format                                   : PGS
  131. Muxing mode                              : zlib
  132. Codec ID                                 : S_HDMV/PGS
  133. Codec ID/Info                            : Picture based subtitle format used on BDs/HD-DVDs
  134. Duration                                 : 1 h 46 min
  135. Bit rate                                 : 34.6 kb/s
  136. Count of elements                        : 2624
  137. Stream size                              : 26.4 MiB (0%)
  138. Title                                    : Norwegian
  139. Language                                 : Norwegian
  140. Default                                  : No
  141. Forced                                   : No

  142. Text #6
  143. ID                                       : 9
  144. Format                                   : PGS
  145. Muxing mode                              : zlib
  146. Codec ID                                 : S_HDMV/PGS
  147. Codec ID/Info                            : Picture based subtitle format used on BDs/HD-DVDs
  148. Duration                                 : 1 h 46 min
  149. Bit rate                                 : 34.3 kb/s
  150. Count of elements                        : 2622
  151. Stream size                              : 26.2 MiB (0%)
  152. Title                                    : Portuguese
  153. Language                                 : Portuguese
  154. Default                                  : No
  155. Forced                                   : No

  156. Text #7
  157. ID                                       : 10
  158. Format                                   : PGS
  159. Muxing mode                              : zlib
  160. Codec ID                                 : S_HDMV/PGS
  161. Codec ID/Info                            : Picture based subtitle format used on BDs/HD-DVDs
  162. Duration                                 : 1 h 46 min
  163. Bit rate                                 : 36.1 kb/s
  164. Count of elements                        : 2630
  165. Stream size                              : 27.4 MiB (0%)
  166. Title                                    : Spanish
  167. Language                                 : Spanish
  168. Default                                  : No
  169. Forced                                   : No

  170. Text #8
  171. ID                                       : 11
  172. Format                                   : PGS
  173. Muxing mode                              : zlib
  174. Codec ID                                 : S_HDMV/PGS
  175. Codec ID/Info                            : Picture based subtitle format used on BDs/HD-DVDs
  176. Duration                                 : 1 h 46 min
  177. Bit rate                                 : 27.6 kb/s
  178. Count of elements                        : 1756
  179. Stream size                              : 21.1 MiB (0%)
  180. Title                                    : Swedish
  181. Language                                 : Swedish
  182. Default                                  : No
  183. Forced                                   : No

  184. Menu
  185. 00:00:00.000                             : :Chapter 01
  186. 00:06:41.318                             : :Chapter 02
  187. 00:11:50.251                             : :Chapter 03
  188. 00:17:59.996                             : :Chapter 04
  189. 00:24:06.445                             : :Chapter 05
  190. 00:31:53.036                             : :Chapter 06
  191. 00:37:43.595                             : :Chapter 07
  192. 00:44:22.243                             : :Chapter 08
  193. 00:52:06.623                             : :Chapter 09
  194. 00:59:28.607                             : :Chapter 10
  195. 01:05:45.233                             : :Chapter 11
  196. 01:11:16.981                             : :Chapter 12
  197. 01:18:40.674                             : :Chapter 13
  198. 01:25:03.348                             : :Chapter 14
  199. 01:30:18.163                             : :Chapter 15
  200. 01:35:49.744                             : :Chapter 16
復制代碼






本帖隱藏的下載地址需要VIP會員才可瀏覽,您需要升級才可瀏覽,點擊這里升級VIP

分享到:  QQ好友和群QQ好友和群
收藏收藏
VIP會員免費任意下載本站所有資源!---點擊開通
回復

使用道具 舉報

 成長值: 3250

級別:尊貴的會員

注冊時間
2019-4-21
最后登錄
2019-12-8
聽眾
13
收聽
0
主題
0
藍光幣
397 枚
貢獻
0 點
沙發
發表于 2019-11-2 01:52:32 | 只看該作者
樓主發貼辛苦了,謝謝樓主分享!我覺得中國高清電影網是注冊對了!
VIP會員免費任意下載本站所有資源!---點擊開通
回復

使用道具 舉報

級別:普通觀眾 Lv.2

注冊時間
2019-10-18
最后登錄
2019-12-8
聽眾
2
收聽
0
主題
0
藍光幣
25 枚
貢獻
0 點
板凳
發表于 2019-11-3 14:23:32 | 只看該作者
樓主發貼辛苦了,謝謝樓主分享!我覺得中國高清電影網是注冊對了!
VIP會員免費任意下載本站所有資源!---點擊開通
回復

使用道具 舉報

懶得打字嘛,點擊右側快捷回復 【右側內容,后臺自定義】
您需要登錄后才可以回帖 登錄 | 立即注冊

本版積分規則

QQ|Archiver|手機版|小黑屋| 中國高清網 |網站地圖

GMT+8, 2019-12-9 10:56 , Processed in 0.207780 second(s), 36 queries .

Powered by HDchina X3.4

Copyright 2017-2019©HDchina.All right reserved

返回頂部 聯系我們
胜负彩19080期