查看: 311|回復: 1
打印 上一主題 下一主題

[10bit.SDR] 終結者2018 Terminator.Salvation.2009.2160p.BluRay.x265.10bit.SDR.DTS-HD.MA.5.1-SWTYBLZ 28.18GB

[復制鏈接]

 成長值: 3400

級別:資源管理組

注冊時間
2017-10-20
最后登錄
2019-12-9
聽眾
1
收聽
0
主題
88290
藍光幣
69434 枚
貢獻
12652 點
跳轉到指定樓層
樓主
發表于 2019-10-30 18:18:17 | 只看該作者 |只看大圖 回帖獎勵 |倒序瀏覽 |閱讀模式


譯  名 終結者2018 / T4 / Terminator 4 / Terminator Salvation: The Future Begins / 未來戰士2018(港) / 未來戰士4 / 終結者4:救世主 / 終結者4:救世軍 / 魔鬼終結者:未來救贖(臺)
片  名 Terminator Salvation
年  代 2009
產  地 美國 / 德國 / 英國 / 意大利
類  別 動作 / 科幻 / 驚悚 / 冒險
語  言 英語 / 意大利語
上映日期 2009-05-21(美國) / 2009-06-09(中國大陸)
IMDb評分  6.5/10 from 325715 users
IMDb鏈接  https://www.imdb.com/title/tt0438488
豆瓣評分 6.7/10 from 75576 users
豆瓣鏈接 https://movie.douban.com/subject/1410556/
片  長 115分鐘
導  演 約瑟夫·麥克金提·尼徹 McG
編  劇 約翰·布蘭卡托 John Brancato / 邁克爾·費里斯 Michael Ferris
主  演 克里斯蒂安·貝爾 Christian Bale
       薩姆·沃辛頓 Sam Worthington
       穆恩·布拉得古德 Moon Bloodgood
       海倫娜·伯翰·卡特 Helena Bonham Carter
       安東·葉利欽 Anton Yelchin
       布萊絲·達拉斯·霍華德 Bryce Dallas Howard
       科曼 Common
       簡·亞歷山大 Jane Alexander
       邁克爾·艾恩塞德 Michael Ironside
       克里斯·勃朗寧 Chris Browning
       貝絲·貝利 Beth Bailey
       巴斯特·雷維斯 Buster Reeves
       格雷格·塞拉諾 Greg Serano
       布魯斯·麥金托什 Bruce McIntosh
       特雷瓦·埃迪內 Treva Etienne
       迪蘭·科寧 Dylan Kenin
       邁克爾·帕帕約翰 Michael Papajohn
       克里斯·阿斯沃思 Chris Ashworth
       格雷格·普利特 Greg Plitt
       泰瑞·克魯斯 Terry Crews
       扎克·麥克格溫 Zach McGowan
       艾薩克·卡皮 Isaac Kappy
       布茲·薩瑟蘭德 Boots Southerland
       大衛·米德拿德 David Midthunder
       安居爾·尼加姆 Anjul Nigam
       羅蘭佐·卡倫德 Lorenzo Callender
       喬·巴齊爾 Joe Basile
       羅蘭德·基金格 Roland Kickinger
       布萊恩·斯蒂爾 Brian Steele
       琳達·漢密爾頓 Linda Hamilton
       保羅·J·珀爾特 Paul J. Porter
       弗蘭克·鮑沃斯 Frank Powers
       Jadagrace
       Ivan G'Vera
       Dorian Nkono
       Victor J. Ho
       Neil Harbisson
       Luke Kearney
       Gregory Leiker
       Mark Rayner


標  簽 科幻 | 美國 | 動作 | 終結者2018 | 2009 | 戰爭 | Terminator | 暴力

簡  介  

  2018年,天網系統與人類的戰爭使世界陷入了末世般的境況,反抗軍精神領袖約翰·康納(克里斯蒂安·貝爾 Christian Bale 飾)帶隊執行一次任務的過程中獲得了戰勝天網的新思路,而天網系統適時推出了新的目標排名,康納位居次席,榜首上康納此時尚年青的父親凱爾·瑞斯赫 然在列。與此同時,一名遺忘了自身過去經歷的強壯男子馬庫斯(薩姆·沃辛頓 Sam Worthington 飾)出現在洛杉磯的廢墟中,他與反抗軍戰士瑞斯偶然結識,并組隊前往反抗軍總部,不料途中遭機械人襲擊,瑞斯被俘。落單的馬庫斯經由反抗軍女戰士布萊爾引路,迎來了與康納命中注定的相遇,但人與機械的對立讓康納不得不視對方為敵人……
  瑞斯在天網中心生死未卜,同時反抗軍高層不肯推遲強行進攻計劃,留給康納的時間不再充裕,他只能選擇進行一場賭上性命與榮譽的潛入行動。

獲獎情況  

  第11屆美國青婦年選擇獎(2009)
  最佳動作冒險電影(提名)
  最佳動作冒險電影男演員(提名) 克里斯蒂安·貝爾
  最佳動作冒險電影女演員(提名) 布萊絲·達拉斯·霍華德
  Choice Movie Fresh Face Male(提名) 薩姆·沃辛頓
  最佳暑期動作冒險電影(提名)
  1. Video
  2. ID                                       : 1
  3. Format                                   : HEVC
  4. Format/Info                              : High Efficiency Video Coding
  5. Format profile                           : Main [email protected]@High
  6. Codec ID                                 : V_MPEGH/ISO/HEVC
  7. Duration                                 : 1 h 54 min
  8. Bit rate                                 : 31.7 Mb/s
  9. Width                                    : 3 840 pixels
  10. Height                                   : 1 606 pixels
  11. Display aspect ratio                     : 2.40:1
  12. Frame rate mode                          : Constant
  13. Frame rate                               : 23.976 (24000/1001) FPS
  14. Color space                              : YUV
  15. Chroma subsampling                       : 4:2:0
  16. Bit depth                                : 10 bits
  17. Bits/(Pixel*Frame)                       : 0.215
  18. Stream size                              : 25.4 GiB (91%)
  19. Title                                    : Terminator.Salvation.2009.2160p.BluRay.x265.10bit.SDR.DTS-HD.MA.5.1-SWTYBLZ
  20. Writing library                          : x265 3.0ed72af837053:[Windows][GCC 8.2.0][64 bit] 10bit
  21. Encoding settings                        : cpuid=1111039 / frame-threads=16 / numa-pools=44,44 / wpp / no-pmode / no-pme / no-psnr / no-ssim / log-level=2 / input-csp=1 / input-res=3840x1606 / interlace=0 / total-frames=165106 / level-idc=51 / high-tier=1 / uhd-bd=0 / ref=3 / no-allow-non-conformance / repeat-headers / annexb / aud / hrd / info / hash=0 / no-temporal-layers / no-open-gop / min-keyint=1 / keyint=24 / gop-lookahead=0 / bframes=4 / b-adapt=2 / b-pyramid / bframe-bias=0 / rc-lookahead=25 / lookahead-slices=4 / scenecut=40 / radl=0 / no-splice / no-intra-refresh / ctu=64 / min-cu-size=8 / no-rect / no-amp / max-tu-size=32 / tu-inter-depth=1 / tu-intra-depth=1 / limit-tu=0 / rdoq-level=0 / dynamic-rd=0.00 / no-ssim-rd / signhide / no-tskip / nr-intra=0 / nr-inter=0 / no-constrained-intra / strong-intra-smoothing / max-merge=2 / limit-refs=3 / no-limit-modes / me=1 / subme=2 / merange=57 / temporal-mvp / weightp / no-weightb / no-analyze-src-pics / deblock=0:0 / no-sao / no-sao-non-deblock / rd=3 / no-early-skip / rskip / no-fast-intra / no-tskip-fast / no-cu-lossless / no-b-intra / no-splitrd-skip / rdpenalty=0 / psy-rd=2.00 / psy-rdoq=0.00 / no-rd-refine / no-lossless / cbqpoffs=0 / crqpoffs=0 / rc=crf / crf=16.0 / qcomp=0.60 / qpstep=4 / stats-write=0 / stats-read=0 / vbv-maxrate=160000 / vbv-bufsize=160000 / vbv-init=0.9 / crf-max=0.0 / crf-min=0.0 / ipratio=1.40 / pbratio=1.30 / aq-mode=1 / aq-strength=1.00 / cutree / zone-count=0 / no-strict-cbr / qg-size=32 / no-rc-grain / qpmax=69 / qpmin=0 / no-const-vbv / sar=1 / overscan=0 / videoformat=5 / range=0 / colorprim=2 / transfer=2 / colormatrix=2 / chromaloc=0 / display-window=0 / max-cll=0,0 / min-luma=0 / max-luma=1023 / log2-max-poc-lsb=8 / vui-timing-info / vui-hrd-info / slices=1 / opt-qp-pps / opt-ref-list-length-pps / no-multi-pass-opt-rps / scenecut-bias=0.05 / no-opt-cu-delta-qp / no-aq-motion / no-hdr / no-hdr-opt / no-dhdr10-opt / no-idr-recovery-sei / analysis-reuse-level=5 / scale-factor=0 / refine-intra=0 / refine-inter=0 / refine-mv=0 / refine-ctu-distortion=0 / no-limit-sao / ctu-info=0 / no-lowpass-dct / refine-analysis-type=0 / copy-pic=1 / max-ausize-factor=1.0 / no-dynamic-refine / no-single-sei / no-hevc-aq / qp-adaptation-range=1.00
  22. Default                                  : Yes
  23. Forced                                   : No

  24. Audio #1
  25. ID                                       : 2
  26. Format                                   : DTS XLL
  27. Format/Info                              : Digital Theater Systems
  28. Commercial name                          : DTS-HD Master Audio
  29. Codec ID                                 : A_DTS
  30. Duration                                 : 1 h 54 min
  31. Bit rate mode                            : Variable
  32. Bit rate                                 : 2 424 kb/s
  33. Channel(s)                               : 6 channels
  34. Channel layout                           : C L R Ls Rs LFE
  35. Sampling rate                            : 48.0 kHz
  36. Frame rate                               : 93.750 FPS (512 SPF)
  37. Bit depth                                : 16 bits
  38. Compression mode                         : Lossless
  39. Stream size                              : 1.94 GiB (7%)
  40. Title                                    : Terminator.Salvation.2009.2160p.BluRay.x265.10bit.SDR.DTS-HD.MA.5.1-SWTYBLZ
  41. Language                                 : English
  42. Default                                  : Yes
  43. Forced                                   : No

  44. Audio #2
  45. ID                                       : 3
  46. Format                                   : AC-3
  47. Format/Info                              : Audio Coding 3
  48. Commercial name                          : Dolby Digital
  49. Codec ID                                 : A_AC3
  50. Duration                                 : 1 h 54 min
  51. Bit rate mode                            : Constant
  52. Bit rate                                 : 640 kb/s
  53. Channel(s)                               : 6 channels
  54. Channel layout                           : L R C LFE Ls Rs
  55. Sampling rate                            : 48.0 kHz
  56. Frame rate                               : 31.250 FPS (1536 SPF)
  57. Bit depth                                : 16 bits
  58. Compression mode                         : Lossy
  59. Stream size                              : 525 MiB (2%)
  60. Title                                    : Terminator.Salvation.2009.2160p.BluRay.x265.10bit.SDR.DTS-HD.MA.5.1-SWTYBLZ
  61. Language                                 : English
  62. Service kind                             : Complete Main
  63. Default                                  : No
  64. Forced                                   : No

  65. Text #1
  66. ID                                       : 4
  67. Format                                   : UTF-8
  68. Codec ID                                 : S_TEXT/UTF8
  69. Codec ID/Info                            : UTF-8 Plain Text
  70. Duration                                 : 1 h 44 min
  71. Bit rate                                 : 32 b/s
  72. Count of elements                        : 816
  73. Stream size                              : 25.3 KiB (0%)
  74. Title                                    : English-SRT
  75. Language                                 : English
  76. Default                                  : Yes
  77. Forced                                   : No

  78. Text #2
  79. ID                                       : 5
  80. Format                                   : UTF-8
  81. Codec ID                                 : S_TEXT/UTF8
  82. Codec ID/Info                            : UTF-8 Plain Text
  83. Duration                                 : 1 h 46 min
  84. Bit rate                                 : 39 b/s
  85. Count of elements                        : 1073
  86. Stream size                              : 31.0 KiB (0%)
  87. Title                                    : English-SDH-SRT
  88. Language                                 : English
  89. Default                                  : No
  90. Forced                                   : No

  91. Text #3
  92. ID                                       : 6
  93. Format                                   : PGS
  94. Muxing mode                              : zlib
  95. Codec ID                                 : S_HDMV/PGS
  96. Codec ID/Info                            : Picture based subtitle format used on BDs/HD-DVDs
  97. Duration                                 : 1 h 44 min
  98. Bit rate                                 : 18.4 kb/s
  99. Count of elements                        : 1558
  100. Stream size                              : 13.8 MiB (0%)
  101. Title                                    : English-PGS
  102. Language                                 : English
  103. Default                                  : No
  104. Forced                                   : No

  105. Text #4
  106. ID                                       : 7
  107. Format                                   : PGS
  108. Muxing mode                              : zlib
  109. Codec ID                                 : S_HDMV/PGS
  110. Codec ID/Info                            : Picture based subtitle format used on BDs/HD-DVDs
  111. Duration                                 : 1 h 46 min
  112. Bit rate                                 : 23.5 kb/s
  113. Count of elements                        : 2145
  114. Stream size                              : 17.9 MiB (0%)
  115. Title                                    : English-SDH-PGS
  116. Language                                 : English
  117. Default                                  : No
  118. Forced                                   : No

  119. Text #5
  120. ID                                       : 8
  121. Format                                   : PGS
  122. Muxing mode                              : zlib
  123. Codec ID                                 : S_HDMV/PGS
  124. Codec ID/Info                            : Picture based subtitle format used on BDs/HD-DVDs
  125. Duration                                 : 1 h 44 min
  126. Bit rate                                 : 10.7 kb/s
  127. Count of elements                        : 1650
  128. Stream size                              : 8.02 MiB (0%)
  129. Title                                    : Arabic-PGS
  130. Language                                 : Arabic
  131. Default                                  : No
  132. Forced                                   : No

  133. Text #6
  134. ID                                       : 9
  135. Format                                   : PGS
  136. Muxing mode                              : zlib
  137. Codec ID                                 : S_HDMV/PGS
  138. Codec ID/Info                            : Picture based subtitle format used on BDs/HD-DVDs
  139. Duration                                 : 1 h 44 min
  140. Bit rate                                 : 15.5 kb/s
  141. Count of elements                        : 1634
  142. Stream size                              : 11.7 MiB (0%)
  143. Title                                    : Chinese-PGS
  144. Language                                 : Chinese
  145. Default                                  : No
  146. Forced                                   : No

  147. Text #7
  148. ID                                       : 10
  149. Format                                   : PGS
  150. Muxing mode                              : zlib
  151. Codec ID                                 : S_HDMV/PGS
  152. Codec ID/Info                            : Picture based subtitle format used on BDs/HD-DVDs
  153. Duration                                 : 1 h 35 min
  154. Bit rate                                 : 541 b/s
  155. Count of elements                        : 50
  156. Stream size                              : 379 KiB (0%)
  157. Title                                    : Chinese-PGS
  158. Language                                 : Chinese
  159. Default                                  : No
  160. Forced                                   : No

  161. Text #8
  162. ID                                       : 11
  163. Format                                   : PGS
  164. Muxing mode                              : zlib
  165. Codec ID                                 : S_HDMV/PGS
  166. Codec ID/Info                            : Picture based subtitle format used on BDs/HD-DVDs
  167. Duration                                 : 1 h 52 min
  168. Bit rate                                 : 15.1 kb/s
  169. Count of elements                        : 1600
  170. Stream size                              : 12.1 MiB (0%)
  171. Title                                    : Czech-PGS
  172. Language                                 : Czech
  173. Default                                  : No
  174. Forced                                   : No

  175. Text #9
  176. ID                                       : 12
  177. Format                                   : PGS
  178. Muxing mode                              : zlib
  179. Codec ID                                 : S_HDMV/PGS
  180. Codec ID/Info                            : Picture based subtitle format used on BDs/HD-DVDs
  181. Duration                                 : 1 h 44 min
  182. Bit rate                                 : 17.6 kb/s
  183. Count of elements                        : 1498
  184. Stream size                              : 13.2 MiB (0%)
  185. Title                                    : Danish-PGS
  186. Language                                 : Danish
  187. Default                                  : No
  188. Forced                                   : No

  189. Text #10
  190. ID                                       : 13
  191. Format                                   : PGS
  192. Muxing mode                              : zlib
  193. Codec ID                                 : S_HDMV/PGS
  194. Codec ID/Info                            : Picture based subtitle format used on BDs/HD-DVDs
  195. Duration                                 : 1 h 52 min
  196. Bit rate                                 : 17.5 kb/s
  197. Count of elements                        : 1526
  198. Stream size                              : 14.1 MiB (0%)
  199. Title                                    : Dutch-PGS
  200. Language                                 : Dutch
  201. Default                                  : No
  202. Forced                                   : No

  203. Text #11
  204. ID                                       : 14
  205. Format                                   : PGS
  206. Muxing mode                              : zlib
  207. Codec ID                                 : S_HDMV/PGS
  208. Codec ID/Info                            : Picture based subtitle format used on BDs/HD-DVDs
  209. Duration                                 : 1 h 44 min
  210. Bit rate                                 : 19.0 kb/s
  211. Count of elements                        : 1560
  212. Stream size                              : 14.2 MiB (0%)
  213. Title                                    : Estonian-PGS
  214. Language                                 : Estonian
  215. Default                                  : No
  216. Forced                                   : No

  217. Text #12
  218. ID                                       : 15
  219. Format                                   : PGS
  220. Muxing mode                              : zlib
  221. Codec ID                                 : S_HDMV/PGS
  222. Codec ID/Info                            : Picture based subtitle format used on BDs/HD-DVDs
  223. Duration                                 : 1 h 44 min
  224. Bit rate                                 : 16.5 kb/s
  225. Count of elements                        : 1510
  226. Stream size                              : 12.4 MiB (0%)
  227. Title                                    : Finnish-PGS
  228. Language                                 : Finnish
  229. Default                                  : No
  230. Forced                                   : No

  231. Text #13
  232. ID                                       : 16
  233. Format                                   : PGS
  234. Muxing mode                              : zlib
  235. Codec ID                                 : S_HDMV/PGS
  236. Codec ID/Info                            : Picture based subtitle format used on BDs/HD-DVDs
  237. Duration                                 : 1 h 52 min
  238. Bit rate                                 : 14.7 kb/s
  239. Count of elements                        : 1606
  240. Stream size                              : 11.9 MiB (0%)
  241. Title                                    : French-PGS
  242. Language                                 : French
  243. Default                                  : No
  244. Forced                                   : No

  245. Text #14
  246. ID                                       : 17
  247. Format                                   : PGS
  248. Muxing mode                              : zlib
  249. Codec ID                                 : S_HDMV/PGS
  250. Codec ID/Info                            : Picture based subtitle format used on BDs/HD-DVDs
  251. Duration                                 : 1 h 44 min
  252. Bit rate                                 : 19.8 kb/s
  253. Count of elements                        : 1760
  254. Stream size                              : 14.9 MiB (0%)
  255. Title                                    : German-PGS
  256. Language                                 : German
  257. Default                                  : No
  258. Forced                                   : No

  259. Text #15
  260. ID                                       : 18
  261. Format                                   : PGS
  262. Muxing mode                              : zlib
  263. Codec ID                                 : S_HDMV/PGS
  264. Codec ID/Info                            : Picture based subtitle format used on BDs/HD-DVDs
  265. Duration                                 : 1 h 44 min
  266. Bit rate                                 : 18.9 kb/s
  267. Count of elements                        : 1560
  268. Stream size                              : 14.2 MiB (0%)
  269. Title                                    : Greek-PGS
  270. Language                                 : Greek
  271. Default                                  : No
  272. Forced                                   : No

  273. Text #16
  274. ID                                       : 19
  275. Format                                   : PGS
  276. Muxing mode                              : zlib
  277. Codec ID                                 : S_HDMV/PGS
  278. Codec ID/Info                            : Picture based subtitle format used on BDs/HD-DVDs
  279. Duration                                 : 1 h 52 min
  280. Bit rate                                 : 14.6 kb/s
  281. Count of elements                        : 1652
  282. Stream size                              : 11.8 MiB (0%)
  283. Title                                    : Hindi-PGS
  284. Language                                 : Hindi
  285. Default                                  : No
  286. Forced                                   : No

  287. Text #17
  288. ID                                       : 20
  289. Format                                   : PGS
  290. Muxing mode                              : zlib
  291. Codec ID                                 : S_HDMV/PGS
  292. Codec ID/Info                            : Picture based subtitle format used on BDs/HD-DVDs
  293. Duration                                 : 1 h 52 min
  294. Bit rate                                 : 15.6 kb/s
  295. Count of elements                        : 1568
  296. Stream size                              : 12.6 MiB (0%)
  297. Title                                    : Hungarian-PGS
  298. Language                                 : Hungarian
  299. Default                                  : No
  300. Forced                                   : No

  301. Text #18
  302. ID                                       : 21
  303. Format                                   : PGS
  304. Muxing mode                              : zlib
  305. Codec ID                                 : S_HDMV/PGS
  306. Codec ID/Info                            : Picture based subtitle format used on BDs/HD-DVDs
  307. Duration                                 : 1 h 44 min
  308. Bit rate                                 : 20.7 kb/s
  309. Count of elements                        : 1640
  310. Stream size                              : 15.5 MiB (0%)
  311. Title                                    : Italian-PGS
  312. Language                                 : Italian
  313. Default                                  : No
  314. Forced                                   : No

  315. Text #19
  316. ID                                       : 22
  317. Format                                   : PGS
  318. Muxing mode                              : zlib
  319. Codec ID                                 : S_HDMV/PGS
  320. Codec ID/Info                            : Picture based subtitle format used on BDs/HD-DVDs
  321. Duration                                 : 1 h 44 min
  322. Bit rate                                 : 17.4 kb/s
  323. Count of elements                        : 1624
  324. Stream size                              : 13.1 MiB (0%)
  325. Title                                    : Lithuanian-PGS
  326. Language                                 : Lithuanian
  327. Default                                  : No
  328. Forced                                   : No

  329. Text #20
  330. ID                                       : 23
  331. Format                                   : PGS
  332. Muxing mode                              : zlib
  333. Codec ID                                 : S_HDMV/PGS
  334. Codec ID/Info                            : Picture based subtitle format used on BDs/HD-DVDs
  335. Duration                                 : 1 h 52 min
  336. Bit rate                                 : 14.4 kb/s
  337. Count of elements                        : 1512
  338. Stream size                              : 11.6 MiB (0%)
  339. Title                                    : Norwegian-PGS
  340. Language                                 : Norwegian
  341. Default                                  : No
  342. Forced                                   : No

  343. Text #21
  344. ID                                       : 24
  345. Format                                   : PGS
  346. Muxing mode                              : zlib
  347. Codec ID                                 : S_HDMV/PGS
  348. Codec ID/Info                            : Picture based subtitle format used on BDs/HD-DVDs
  349. Duration                                 : 1 h 52 min
  350. Bit rate                                 : 16.1 kb/s
  351. Count of elements                        : 1604
  352. Stream size                              : 13.0 MiB (0%)
  353. Title                                    : Polish-PGS
  354. Language                                 : Polish
  355. Default                                  : No
  356. Forced                                   : No

  357. Text #22
  358. ID                                       : 25
  359. Format                                   : PGS
  360. Muxing mode                              : zlib
  361. Codec ID                                 : S_HDMV/PGS
  362. Codec ID/Info                            : Picture based subtitle format used on BDs/HD-DVDs
  363. Duration                                 : 1 h 53 min
  364. Bit rate                                 : 15.7 kb/s
  365. Count of elements                        : 1598
  366. Stream size                              : 12.8 MiB (0%)
  367. Title                                    : Portuguese-PGS
  368. Language                                 : Portuguese
  369. Default                                  : No
  370. Forced                                   : No

  371. Text #23
  372. ID                                       : 26
  373. Format                                   : PGS
  374. Muxing mode                              : zlib
  375. Codec ID                                 : S_HDMV/PGS
  376. Codec ID/Info                            : Picture based subtitle format used on BDs/HD-DVDs
  377. Duration                                 : 1 h 17 min
  378. Bit rate                                 : 881 b/s
  379. Count of elements                        : 42
  380. Stream size                              : 501 KiB (0%)
  381. Title                                    : Portuguese-PGS
  382. Language                                 : Portuguese
  383. Default                                  : No
  384. Forced                                   : No

  385. Text #24
  386. ID                                       : 27
  387. Format                                   : PGS
  388. Muxing mode                              : zlib
  389. Codec ID                                 : S_HDMV/PGS
  390. Codec ID/Info                            : Picture based subtitle format used on BDs/HD-DVDs
  391. Duration                                 : 1 h 53 min
  392. Bit rate                                 : 17.5 kb/s
  393. Count of elements                        : 1620
  394. Stream size                              : 14.2 MiB (0%)
  395. Title                                    : Romanian-PGS
  396. Language                                 : Romanian
  397. Default                                  : No
  398. Forced                                   : No

  399. Text #25
  400. ID                                       : 28
  401. Format                                   : PGS
  402. Muxing mode                              : zlib
  403. Codec ID                                 : S_HDMV/PGS
  404. Codec ID/Info                            : Picture based subtitle format used on BDs/HD-DVDs
  405. Duration                                 : 1 h 52 min
  406. Bit rate                                 : 18.9 kb/s
  407. Count of elements                        : 1714
  408. Stream size                              : 15.2 MiB (0%)
  409. Title                                    : Russian-PGS
  410. Language                                 : Russian
  411. Default                                  : No
  412. Forced                                   : No

  413. Text #26
  414. ID                                       : 29
  415. Format                                   : PGS
  416. Muxing mode                              : zlib
  417. Codec ID                                 : S_HDMV/PGS
  418. Codec ID/Info                            : Picture based subtitle format used on BDs/HD-DVDs
  419. Duration                                 : 1 h 44 min
  420. Bit rate                                 : 18.3 kb/s
  421. Count of elements                        : 1650
  422. Stream size                              : 13.7 MiB (0%)
  423. Title                                    : Slovak-PGS
  424. Language                                 : Slovak
  425. Default                                  : No
  426. Forced                                   : No

  427. Text #27
  428. ID                                       : 30
  429. Format                                   : PGS
  430. Muxing mode                              : zlib
  431. Codec ID                                 : S_HDMV/PGS
  432. Codec ID/Info                            : Picture based subtitle format used on BDs/HD-DVDs
  433. Duration                                 : 1 h 44 min
  434. Bit rate                                 : 17.2 kb/s
  435. Count of elements                        : 1650
  436. Stream size                              : 12.9 MiB (0%)
  437. Title                                    : Slovenian-PGS
  438. Language                                 : Slovenian
  439. Default                                  : No
  440. Forced                                   : No

  441. Text #28
  442. ID                                       : 31
  443. Format                                   : PGS
  444. Muxing mode                              : zlib
  445. Codec ID                                 : S_HDMV/PGS
  446. Codec ID/Info                            : Picture based subtitle format used on BDs/HD-DVDs
  447. Duration                                 : 1 h 52 min
  448. Bit rate                                 : 16.1 kb/s
  449. Count of elements                        : 1572
  450. Stream size                              : 13.0 MiB (0%)
  451. Title                                    : Spanish-PGS
  452. Language                                 : Spanish
  453. Default                                  : No
  454. Forced                                   : No

  455. Text #29
  456. ID                                       : 32
  457. Format                                   : PGS
  458. Muxing mode                              : zlib
  459. Codec ID                                 : S_HDMV/PGS
  460. Codec ID/Info                            : Picture based subtitle format used on BDs/HD-DVDs
  461. Duration                                 : 1 h 52 min
  462. Bit rate                                 : 524 b/s
  463. Count of elements                        : 32
  464. Stream size                              : 433 KiB (0%)
  465. Title                                    : Spanish-PGS
  466. Language                                 : Spanish
  467. Default                                  : No
  468. Forced                                   : No

  469. Text #30
  470. ID                                       : 33
  471. Format                                   : PGS
  472. Muxing mode                              : zlib
  473. Codec ID                                 : S_HDMV/PGS
  474. Codec ID/Info                            : Picture based subtitle format used on BDs/HD-DVDs
  475. Duration                                 : 1 h 44 min
  476. Bit rate                                 : 16.7 kb/s
  477. Count of elements                        : 1572
  478. Stream size                              : 12.5 MiB (0%)
  479. Title                                    : Swedish-PGS
  480. Language                                 : Swedish
  481. Default                                  : No
  482. Forced                                   : No

  483. Text #31
  484. ID                                       : 34
  485. Format                                   : PGS
  486. Muxing mode                              : zlib
  487. Codec ID                                 : S_HDMV/PGS
  488. Codec ID/Info                            : Picture based subtitle format used on BDs/HD-DVDs
  489. Duration                                 : 1 h 44 min
  490. Bit rate                                 : 17.9 kb/s
  491. Count of elements                        : 1650
  492. Stream size                              : 13.4 MiB (0%)
  493. Title                                    : Thai-PGS
  494. Language                                 : Thai
  495. Default                                  : No
  496. Forced                                   : No

  497. Text #32
  498. ID                                       : 35
  499. Format                                   : PGS
  500. Muxing mode                              : zlib
  501. Codec ID                                 : S_HDMV/PGS
  502. Codec ID/Info                            : Picture based subtitle format used on BDs/HD-DVDs
  503. Duration                                 : 1 h 44 min
  504. Bit rate                                 : 18.9 kb/s
  505. Count of elements                        : 1634
  506. Stream size                              : 14.2 MiB (0%)
  507. Title                                    : Turkish-PGS
  508. Language                                 : Turkish
  509. Default                                  : No
  510. Forced                                   : No

  511. Menu
  512. 00:00:00.000                             : en:Chapter 01
  513. 00:04:10.667                             : en:Chapter 02
  514. 00:14:30.244                             : en:Chapter 03
  515. 00:21:08.016                             : en:Chapter 04
  516. 00:29:11.499                             : en:Chapter 05
  517. 00:34:24.896                             : en:Chapter 06
  518. 00:41:06.630                             : en:Chapter 07
  519. 00:50:15.721                             : en:Chapter 08
  520. 00:56:19.959                             : en:Chapter 09
  521. 01:06:19.183                             : en:Chapter 10
  522. 01:15:24.853                             : en:Chapter 11
  523. 01:22:50.548                             : en:Chapter 12
  524. 01:30:35.221                             : en:Chapter 13
  525. 01:34:55.481                             : en:Chapter 14
  526. 01:38:53.969                             : en:Chapter 15
  527. 01:42:43.657                             : en:Chapter 16
復制代碼









本帖隱藏的下載地址需要VIP會員才可瀏覽,您需要升級才可瀏覽,點擊這里升級VIP
分享到:  QQ好友和群QQ好友和群
收藏收藏
VIP會員免費任意下載本站所有資源!---點擊開通
回復

使用道具 舉報

級別:普通觀眾 Lv.2

注冊時間
2019-10-23
最后登錄
2019-12-7
聽眾
1
收聽
0
主題
0
藍光幣
16 枚
貢獻
0 點
沙發
發表于 2019-11-21 22:54:53 | 只看該作者

樓主太厲害了!樓主,電影應該很好看我覺得中國高清電影網真是個好地方!
VIP會員免費任意下載本站所有資源!---點擊開通
回復

使用道具 舉報

懶得打字嘛,點擊右側快捷回復 【右側內容,后臺自定義】
您需要登錄后才可以回帖 登錄 | 立即注冊

本版積分規則

QQ|Archiver|手機版|小黑屋| 中國高清網 |網站地圖

GMT+8, 2019-12-9 10:40 , Processed in 0.236018 second(s), 36 queries .

Powered by HDchina X3.4

Copyright 2017-2019©HDchina.All right reserved

返回頂部 聯系我們
胜负彩19080期