查看: 235|回復: 0
打印 上一主題 下一主題

[8bit.SDR] 終結者2018 Terminator.Salvation.2009.2160p.BluRay.x264.8bit.SDR.DTS-HD.MA.5.1-SWTYBLZ 32.80GB

[復制鏈接]

 成長值: 3400

級別:資源管理組

注冊時間
2017-10-20
最后登錄
2019-12-9
聽眾
1
收聽
0
主題
88290
藍光幣
69426 枚
貢獻
12652 點
跳轉到指定樓層
樓主
發表于 2019-10-30 18:20:11 | 只看該作者 |只看大圖 回帖獎勵 |倒序瀏覽 |閱讀模式


譯  名 終結者2018 / T4 / Terminator 4 / Terminator Salvation: The Future Begins / 未來戰士2018(港) / 未來戰士4 / 終結者4:救世主 / 終結者4:救世軍 / 魔鬼終結者:未來救贖(臺)
片  名 Terminator Salvation
年  代 2009
產  地 美國 / 德國 / 英國 / 意大利
類  別 動作 / 科幻 / 驚悚 / 冒險
語  言 英語 / 意大利語
上映日期 2009-05-21(美國) / 2009-06-09(中國大陸)
IMDb評分  6.5/10 from 325715 users
IMDb鏈接  https://www.imdb.com/title/tt0438488
豆瓣評分 6.7/10 from 75576 users
豆瓣鏈接 https://movie.douban.com/subject/1410556/
片  長 115分鐘
導  演 約瑟夫·麥克金提·尼徹 McG
編  劇 約翰·布蘭卡托 John Brancato / 邁克爾·費里斯 Michael Ferris
主  演 克里斯蒂安·貝爾 Christian Bale
       薩姆·沃辛頓 Sam Worthington
       穆恩·布拉得古德 Moon Bloodgood
       海倫娜·伯翰·卡特 Helena Bonham Carter
       安東·葉利欽 Anton Yelchin
       布萊絲·達拉斯·霍華德 Bryce Dallas Howard
       科曼 Common
       簡·亞歷山大 Jane Alexander
       邁克爾·艾恩塞德 Michael Ironside
       克里斯·勃朗寧 Chris Browning
       貝絲·貝利 Beth Bailey
       巴斯特·雷維斯 Buster Reeves
       格雷格·塞拉諾 Greg Serano
       布魯斯·麥金托什 Bruce McIntosh
       特雷瓦·埃迪內 Treva Etienne
       迪蘭·科寧 Dylan Kenin
       邁克爾·帕帕約翰 Michael Papajohn
       克里斯·阿斯沃思 Chris Ashworth
       格雷格·普利特 Greg Plitt
       泰瑞·克魯斯 Terry Crews
       扎克·麥克格溫 Zach McGowan
       艾薩克·卡皮 Isaac Kappy
       布茲·薩瑟蘭德 Boots Southerland
       大衛·米德拿德 David Midthunder
       安居爾·尼加姆 Anjul Nigam
       羅蘭佐·卡倫德 Lorenzo Callender
       喬·巴齊爾 Joe Basile
       羅蘭德·基金格 Roland Kickinger
       布萊恩·斯蒂爾 Brian Steele
       琳達·漢密爾頓 Linda Hamilton
       保羅·J·珀爾特 Paul J. Porter
       弗蘭克·鮑沃斯 Frank Powers
       Jadagrace
       Ivan G'Vera
       Dorian Nkono
       Victor J. Ho
       Neil Harbisson
       Luke Kearney
       Gregory Leiker
       Mark Rayner


標  簽 科幻 | 美國 | 動作 | 終結者2018 | 2009 | 戰爭 | Terminator | 暴力

簡  介  

  2018年,天網系統與人類的戰爭使世界陷入了末世般的境況,反抗軍精神領袖約翰·康納(克里斯蒂安·貝爾 Christian Bale 飾)帶隊執行一次任務的過程中獲得了戰勝天網的新思路,而天網系統適時推出了新的目標排名,康納位居次席,榜首上康納此時尚年青的父親凱爾·瑞斯赫 然在列。與此同時,一名遺忘了自身過去經歷的強壯男子馬庫斯(薩姆·沃辛頓 Sam Worthington 飾)出現在洛杉磯的廢墟中,他與反抗軍戰士瑞斯偶然結識,并組隊前往反抗軍總部,不料途中遭機械人襲擊,瑞斯被俘。落單的馬庫斯經由反抗軍女戰士布萊爾引路,迎來了與康納命中注定的相遇,但人與機械的對立讓康納不得不視對方為敵人……
  瑞斯在天網中心生死未卜,同時反抗軍高層不肯推遲強行進攻計劃,留給康納的時間不再充裕,他只能選擇進行一場賭上性命與榮譽的潛入行動。

獲獎情況  

  第11屆美國青婦年選擇獎(2009)
  最佳動作冒險電影(提名)
  最佳動作冒險電影男演員(提名) 克里斯蒂安·貝爾
  最佳動作冒險電影女演員(提名) 布萊絲·達拉斯·霍華德
  Choice Movie Fresh Face Male(提名) 薩姆·沃辛頓
  最佳暑期動作冒險電影(提名)
  1. Video
  2. ID                                       : 1
  3. Format                                   : AVC
  4. Format/Info                              : Advanced Video Codec
  5. Format profile                           : [email protected]
  6. Format settings                          : CABAC / 5 Ref Frames
  7. Format settings, CABAC                   : Yes
  8. Format settings, Reference frames        : 5 frames
  9. Codec ID                                 : V_MPEG4/ISO/AVC
  10. Duration                                 : 1 h 54 min
  11. Bit rate                                 : 37.5 Mb/s
  12. Width                                    : 3 840 pixels
  13. Height                                   : 1 606 pixels
  14. Display aspect ratio                     : 2.40:1
  15. Frame rate mode                          : Constant
  16. Frame rate                               : 23.976 (24000/1001) FPS
  17. Color space                              : YUV
  18. Chroma subsampling                       : 4:2:0
  19. Bit depth                                : 8 bits
  20. Scan type                                : Progressive
  21. Bits/(Pixel*Frame)                       : 0.253
  22. Stream size                              : 30.0 GiB (92%)
  23. Title                                    : Terminator.Salvation.2009.2160p.BluRay.x264.8bit.SDR.DTS-HD.MA.5.1-SWTYBLZ
  24. Writing library                          : x264 core 157 r2935 545de2f
  25. Encoding settings                        : cabac=1 / ref=5 / deblock=1:-1:-1 / analyse=0x3:0x113 / me=umh / subme=10 / psy=1 / psy_rd=1.00:0.15 / mixed_ref=1 / me_range=48 / chroma_me=1 / trellis=2 / 8x8dct=1 / cqm=0 / deadzone=21,11 / fast_pskip=1 / chroma_qp_offset=-3 / threads=48 / lookahead_threads=4 / sliced_threads=0 / nr=0 / decimate=0 / interlaced=0 / bluray_compat=0 / constrained_intra=0 / bframes=3 / b_pyramid=2 / b_adapt=2 / b_bias=0 / direct=3 / weightb=1 / open_gop=0 / weightp=2 / keyint=250 / keyint_min=23 / scenecut=40 / intra_refresh=0 / rc_lookahead=50 / rc=crf / mbtree=1 / crf=18.0 / qcomp=0.60 / qpmin=0 / qpmax=69 / qpstep=4 / ip_ratio=1.40 / aq=1:1.00
  26. Language                                 : English
  27. Default                                  : Yes
  28. Forced                                   : No

  29. Audio #1
  30. ID                                       : 2
  31. Format                                   : DTS XLL
  32. Format/Info                              : Digital Theater Systems
  33. Commercial name                          : DTS-HD Master Audio
  34. Codec ID                                 : A_DTS
  35. Duration                                 : 1 h 54 min
  36. Bit rate mode                            : Variable
  37. Bit rate                                 : 2 424 kb/s
  38. Channel(s)                               : 6 channels
  39. Channel layout                           : C L R Ls Rs LFE
  40. Sampling rate                            : 48.0 kHz
  41. Frame rate                               : 93.750 FPS (512 SPF)
  42. Bit depth                                : 16 bits
  43. Compression mode                         : Lossless
  44. Stream size                              : 1.94 GiB (6%)
  45. Title                                    : Terminator.Salvation.2009.2160p.BluRay.x264.8bit.SDR.DTS-HD.MA.5.1-SWTYBLZ
  46. Language                                 : English
  47. Default                                  : Yes
  48. Forced                                   : No

  49. Audio #2
  50. ID                                       : 3
  51. Format                                   : AC-3
  52. Format/Info                              : Audio Coding 3
  53. Commercial name                          : Dolby Digital
  54. Codec ID                                 : A_AC3
  55. Duration                                 : 1 h 54 min
  56. Bit rate mode                            : Constant
  57. Bit rate                                 : 640 kb/s
  58. Channel(s)                               : 6 channels
  59. Channel layout                           : L R C LFE Ls Rs
  60. Sampling rate                            : 48.0 kHz
  61. Frame rate                               : 31.250 FPS (1536 SPF)
  62. Bit depth                                : 16 bits
  63. Compression mode                         : Lossy
  64. Stream size                              : 525 MiB (2%)
  65. Title                                    : Terminator.Salvation.2009.2160p.BluRay.x264.8bit.SDR.DTS-HD.MA.5.1-SWTYBLZ
  66. Language                                 : English
  67. Service kind                             : Complete Main
  68. Default                                  : No
  69. Forced                                   : No

  70. Text #1
  71. ID                                       : 4
  72. Format                                   : UTF-8
  73. Codec ID                                 : S_TEXT/UTF8
  74. Codec ID/Info                            : UTF-8 Plain Text
  75. Duration                                 : 1 h 44 min
  76. Bit rate                                 : 32 b/s
  77. Count of elements                        : 816
  78. Stream size                              : 25.3 KiB (0%)
  79. Title                                    : English-SRT
  80. Language                                 : English
  81. Default                                  : Yes
  82. Forced                                   : No

  83. Text #2
  84. ID                                       : 5
  85. Format                                   : UTF-8
  86. Codec ID                                 : S_TEXT/UTF8
  87. Codec ID/Info                            : UTF-8 Plain Text
  88. Duration                                 : 1 h 46 min
  89. Bit rate                                 : 39 b/s
  90. Count of elements                        : 1073
  91. Stream size                              : 31.0 KiB (0%)
  92. Title                                    : English-SDH-SRT
  93. Language                                 : English
  94. Default                                  : No
  95. Forced                                   : No

  96. Text #3
  97. ID                                       : 6
  98. Format                                   : PGS
  99. Muxing mode                              : zlib
  100. Codec ID                                 : S_HDMV/PGS
  101. Codec ID/Info                            : Picture based subtitle format used on BDs/HD-DVDs
  102. Duration                                 : 1 h 44 min
  103. Bit rate                                 : 18.4 kb/s
  104. Count of elements                        : 1558
  105. Stream size                              : 13.8 MiB (0%)
  106. Title                                    : English-PGS
  107. Language                                 : English
  108. Default                                  : No
  109. Forced                                   : No

  110. Text #4
  111. ID                                       : 7
  112. Format                                   : PGS
  113. Muxing mode                              : zlib
  114. Codec ID                                 : S_HDMV/PGS
  115. Codec ID/Info                            : Picture based subtitle format used on BDs/HD-DVDs
  116. Duration                                 : 1 h 46 min
  117. Bit rate                                 : 23.5 kb/s
  118. Count of elements                        : 2145
  119. Stream size                              : 17.9 MiB (0%)
  120. Title                                    : English-SDH-PGS
  121. Language                                 : English
  122. Default                                  : No
  123. Forced                                   : No

  124. Text #5
  125. ID                                       : 8
  126. Format                                   : PGS
  127. Muxing mode                              : zlib
  128. Codec ID                                 : S_HDMV/PGS
  129. Codec ID/Info                            : Picture based subtitle format used on BDs/HD-DVDs
  130. Duration                                 : 1 h 44 min
  131. Bit rate                                 : 10.7 kb/s
  132. Count of elements                        : 1650
  133. Stream size                              : 8.02 MiB (0%)
  134. Title                                    : Arabic-PGS
  135. Language                                 : Arabic
  136. Default                                  : No
  137. Forced                                   : No

  138. Text #6
  139. ID                                       : 9
  140. Format                                   : PGS
  141. Muxing mode                              : zlib
  142. Codec ID                                 : S_HDMV/PGS
  143. Codec ID/Info                            : Picture based subtitle format used on BDs/HD-DVDs
  144. Duration                                 : 1 h 44 min
  145. Bit rate                                 : 15.5 kb/s
  146. Count of elements                        : 1634
  147. Stream size                              : 11.7 MiB (0%)
  148. Title                                    : Chinese-PGS
  149. Language                                 : Chinese
  150. Default                                  : No
  151. Forced                                   : No

  152. Text #7
  153. ID                                       : 10
  154. Format                                   : PGS
  155. Muxing mode                              : zlib
  156. Codec ID                                 : S_HDMV/PGS
  157. Codec ID/Info                            : Picture based subtitle format used on BDs/HD-DVDs
  158. Duration                                 : 1 h 35 min
  159. Bit rate                                 : 541 b/s
  160. Count of elements                        : 50
  161. Stream size                              : 379 KiB (0%)
  162. Title                                    : Chinese-PGS
  163. Language                                 : Chinese
  164. Default                                  : No
  165. Forced                                   : No

  166. Text #8
  167. ID                                       : 11
  168. Format                                   : PGS
  169. Muxing mode                              : zlib
  170. Codec ID                                 : S_HDMV/PGS
  171. Codec ID/Info                            : Picture based subtitle format used on BDs/HD-DVDs
  172. Duration                                 : 1 h 52 min
  173. Bit rate                                 : 15.1 kb/s
  174. Count of elements                        : 1600
  175. Stream size                              : 12.1 MiB (0%)
  176. Title                                    : Czech-PGS
  177. Language                                 : Czech
  178. Default                                  : No
  179. Forced                                   : No

  180. Text #9
  181. ID                                       : 12
  182. Format                                   : PGS
  183. Muxing mode                              : zlib
  184. Codec ID                                 : S_HDMV/PGS
  185. Codec ID/Info                            : Picture based subtitle format used on BDs/HD-DVDs
  186. Duration                                 : 1 h 44 min
  187. Bit rate                                 : 17.6 kb/s
  188. Count of elements                        : 1498
  189. Stream size                              : 13.2 MiB (0%)
  190. Title                                    : Danish-PGS
  191. Language                                 : Danish
  192. Default                                  : No
  193. Forced                                   : No

  194. Text #10
  195. ID                                       : 13
  196. Format                                   : PGS
  197. Muxing mode                              : zlib
  198. Codec ID                                 : S_HDMV/PGS
  199. Codec ID/Info                            : Picture based subtitle format used on BDs/HD-DVDs
  200. Duration                                 : 1 h 52 min
  201. Bit rate                                 : 17.5 kb/s
  202. Count of elements                        : 1526
  203. Stream size                              : 14.1 MiB (0%)
  204. Title                                    : Dutch-PGS
  205. Language                                 : Dutch
  206. Default                                  : No
  207. Forced                                   : No

  208. Text #11
  209. ID                                       : 14
  210. Format                                   : PGS
  211. Muxing mode                              : zlib
  212. Codec ID                                 : S_HDMV/PGS
  213. Codec ID/Info                            : Picture based subtitle format used on BDs/HD-DVDs
  214. Duration                                 : 1 h 44 min
  215. Bit rate                                 : 19.0 kb/s
  216. Count of elements                        : 1560
  217. Stream size                              : 14.2 MiB (0%)
  218. Title                                    : Estonian-PGS
  219. Language                                 : Estonian
  220. Default                                  : No
  221. Forced                                   : No

  222. Text #12
  223. ID                                       : 15
  224. Format                                   : PGS
  225. Muxing mode                              : zlib
  226. Codec ID                                 : S_HDMV/PGS
  227. Codec ID/Info                            : Picture based subtitle format used on BDs/HD-DVDs
  228. Duration                                 : 1 h 44 min
  229. Bit rate                                 : 16.5 kb/s
  230. Count of elements                        : 1510
  231. Stream size                              : 12.4 MiB (0%)
  232. Title                                    : Finnish-PGS
  233. Language                                 : Finnish
  234. Default                                  : No
  235. Forced                                   : No

  236. Text #13
  237. ID                                       : 16
  238. Format                                   : PGS
  239. Muxing mode                              : zlib
  240. Codec ID                                 : S_HDMV/PGS
  241. Codec ID/Info                            : Picture based subtitle format used on BDs/HD-DVDs
  242. Duration                                 : 1 h 52 min
  243. Bit rate                                 : 14.7 kb/s
  244. Count of elements                        : 1606
  245. Stream size                              : 11.9 MiB (0%)
  246. Title                                    : French-PGS
  247. Language                                 : French
  248. Default                                  : No
  249. Forced                                   : No

  250. Text #14
  251. ID                                       : 17
  252. Format                                   : PGS
  253. Muxing mode                              : zlib
  254. Codec ID                                 : S_HDMV/PGS
  255. Codec ID/Info                            : Picture based subtitle format used on BDs/HD-DVDs
  256. Duration                                 : 1 h 44 min
  257. Bit rate                                 : 19.8 kb/s
  258. Count of elements                        : 1760
  259. Stream size                              : 14.9 MiB (0%)
  260. Title                                    : German-PGS
  261. Language                                 : German
  262. Default                                  : No
  263. Forced                                   : No

  264. Text #15
  265. ID                                       : 18
  266. Format                                   : PGS
  267. Muxing mode                              : zlib
  268. Codec ID                                 : S_HDMV/PGS
  269. Codec ID/Info                            : Picture based subtitle format used on BDs/HD-DVDs
  270. Duration                                 : 1 h 44 min
  271. Bit rate                                 : 18.9 kb/s
  272. Count of elements                        : 1560
  273. Stream size                              : 14.2 MiB (0%)
  274. Title                                    : Greek-PGS
  275. Language                                 : Greek
  276. Default                                  : No
  277. Forced                                   : No

  278. Text #16
  279. ID                                       : 19
  280. Format                                   : PGS
  281. Muxing mode                              : zlib
  282. Codec ID                                 : S_HDMV/PGS
  283. Codec ID/Info                            : Picture based subtitle format used on BDs/HD-DVDs
  284. Duration                                 : 1 h 52 min
  285. Bit rate                                 : 14.6 kb/s
  286. Count of elements                        : 1652
  287. Stream size                              : 11.8 MiB (0%)
  288. Title                                    : Hindi-PGS
  289. Language                                 : Hindi
  290. Default                                  : No
  291. Forced                                   : No

  292. Text #17
  293. ID                                       : 20
  294. Format                                   : PGS
  295. Muxing mode                              : zlib
  296. Codec ID                                 : S_HDMV/PGS
  297. Codec ID/Info                            : Picture based subtitle format used on BDs/HD-DVDs
  298. Duration                                 : 1 h 52 min
  299. Bit rate                                 : 15.6 kb/s
  300. Count of elements                        : 1568
  301. Stream size                              : 12.6 MiB (0%)
  302. Title                                    : Hungarian-PGS
  303. Language                                 : Hungarian
  304. Default                                  : No
  305. Forced                                   : No

  306. Text #18
  307. ID                                       : 21
  308. Format                                   : PGS
  309. Muxing mode                              : zlib
  310. Codec ID                                 : S_HDMV/PGS
  311. Codec ID/Info                            : Picture based subtitle format used on BDs/HD-DVDs
  312. Duration                                 : 1 h 44 min
  313. Bit rate                                 : 20.7 kb/s
  314. Count of elements                        : 1640
  315. Stream size                              : 15.5 MiB (0%)
  316. Title                                    : Italian-PGS
  317. Language                                 : Italian
  318. Default                                  : No
  319. Forced                                   : No

  320. Text #19
  321. ID                                       : 22
  322. Format                                   : PGS
  323. Muxing mode                              : zlib
  324. Codec ID                                 : S_HDMV/PGS
  325. Codec ID/Info                            : Picture based subtitle format used on BDs/HD-DVDs
  326. Duration                                 : 1 h 44 min
  327. Bit rate                                 : 17.4 kb/s
  328. Count of elements                        : 1624
  329. Stream size                              : 13.1 MiB (0%)
  330. Title                                    : Lithuanian-PGS
  331. Language                                 : Lithuanian
  332. Default                                  : No
  333. Forced                                   : No

  334. Text #20
  335. ID                                       : 23
  336. Format                                   : PGS
  337. Muxing mode                              : zlib
  338. Codec ID                                 : S_HDMV/PGS
  339. Codec ID/Info                            : Picture based subtitle format used on BDs/HD-DVDs
  340. Duration                                 : 1 h 52 min
  341. Bit rate                                 : 14.4 kb/s
  342. Count of elements                        : 1512
  343. Stream size                              : 11.6 MiB (0%)
  344. Title                                    : Norwegian-PGS
  345. Language                                 : Norwegian
  346. Default                                  : No
  347. Forced                                   : No

  348. Text #21
  349. ID                                       : 24
  350. Format                                   : PGS
  351. Muxing mode                              : zlib
  352. Codec ID                                 : S_HDMV/PGS
  353. Codec ID/Info                            : Picture based subtitle format used on BDs/HD-DVDs
  354. Duration                                 : 1 h 52 min
  355. Bit rate                                 : 16.1 kb/s
  356. Count of elements                        : 1604
  357. Stream size                              : 13.0 MiB (0%)
  358. Title                                    : Polish-PGS
  359. Language                                 : Polish
  360. Default                                  : No
  361. Forced                                   : No

  362. Text #22
  363. ID                                       : 25
  364. Format                                   : PGS
  365. Muxing mode                              : zlib
  366. Codec ID                                 : S_HDMV/PGS
  367. Codec ID/Info                            : Picture based subtitle format used on BDs/HD-DVDs
  368. Duration                                 : 1 h 53 min
  369. Bit rate                                 : 15.7 kb/s
  370. Count of elements                        : 1598
  371. Stream size                              : 12.8 MiB (0%)
  372. Title                                    : Portuguese-PGS
  373. Language                                 : Portuguese
  374. Default                                  : No
  375. Forced                                   : No

  376. Text #23
  377. ID                                       : 26
  378. Format                                   : PGS
  379. Muxing mode                              : zlib
  380. Codec ID                                 : S_HDMV/PGS
  381. Codec ID/Info                            : Picture based subtitle format used on BDs/HD-DVDs
  382. Duration                                 : 1 h 17 min
  383. Bit rate                                 : 881 b/s
  384. Count of elements                        : 42
  385. Stream size                              : 501 KiB (0%)
  386. Title                                    : Portuguese-PGS
  387. Language                                 : Portuguese
  388. Default                                  : No
  389. Forced                                   : No

  390. Text #24
  391. ID                                       : 27
  392. Format                                   : PGS
  393. Muxing mode                              : zlib
  394. Codec ID                                 : S_HDMV/PGS
  395. Codec ID/Info                            : Picture based subtitle format used on BDs/HD-DVDs
  396. Duration                                 : 1 h 53 min
  397. Bit rate                                 : 17.5 kb/s
  398. Count of elements                        : 1620
  399. Stream size                              : 14.2 MiB (0%)
  400. Title                                    : Romanian-PGS
  401. Language                                 : Romanian
  402. Default                                  : No
  403. Forced                                   : No

  404. Text #25
  405. ID                                       : 28
  406. Format                                   : PGS
  407. Muxing mode                              : zlib
  408. Codec ID                                 : S_HDMV/PGS
  409. Codec ID/Info                            : Picture based subtitle format used on BDs/HD-DVDs
  410. Duration                                 : 1 h 52 min
  411. Bit rate                                 : 18.9 kb/s
  412. Count of elements                        : 1714
  413. Stream size                              : 15.2 MiB (0%)
  414. Title                                    : Russian-PGS
  415. Language                                 : Russian
  416. Default                                  : No
  417. Forced                                   : No

  418. Text #26
  419. ID                                       : 29
  420. Format                                   : PGS
  421. Muxing mode                              : zlib
  422. Codec ID                                 : S_HDMV/PGS
  423. Codec ID/Info                            : Picture based subtitle format used on BDs/HD-DVDs
  424. Duration                                 : 1 h 44 min
  425. Bit rate                                 : 18.3 kb/s
  426. Count of elements                        : 1650
  427. Stream size                              : 13.7 MiB (0%)
  428. Title                                    : Slovak-PGS
  429. Language                                 : Slovak
  430. Default                                  : No
  431. Forced                                   : No

  432. Text #27
  433. ID                                       : 30
  434. Format                                   : PGS
  435. Muxing mode                              : zlib
  436. Codec ID                                 : S_HDMV/PGS
  437. Codec ID/Info                            : Picture based subtitle format used on BDs/HD-DVDs
  438. Duration                                 : 1 h 44 min
  439. Bit rate                                 : 17.2 kb/s
  440. Count of elements                        : 1650
  441. Stream size                              : 12.9 MiB (0%)
  442. Title                                    : Slovenian-PGS
  443. Language                                 : Slovenian
  444. Default                                  : No
  445. Forced                                   : No

  446. Text #28
  447. ID                                       : 31
  448. Format                                   : PGS
  449. Muxing mode                              : zlib
  450. Codec ID                                 : S_HDMV/PGS
  451. Codec ID/Info                            : Picture based subtitle format used on BDs/HD-DVDs
  452. Duration                                 : 1 h 52 min
  453. Bit rate                                 : 16.1 kb/s
  454. Count of elements                        : 1572
  455. Stream size                              : 13.0 MiB (0%)
  456. Title                                    : Spanish-PGS
  457. Language                                 : Spanish
  458. Default                                  : No
  459. Forced                                   : No

  460. Text #29
  461. ID                                       : 32
  462. Format                                   : PGS
  463. Muxing mode                              : zlib
  464. Codec ID                                 : S_HDMV/PGS
  465. Codec ID/Info                            : Picture based subtitle format used on BDs/HD-DVDs
  466. Duration                                 : 1 h 52 min
  467. Bit rate                                 : 524 b/s
  468. Count of elements                        : 32
  469. Stream size                              : 433 KiB (0%)
  470. Title                                    : Spanish-PGS
  471. Language                                 : Spanish
  472. Default                                  : No
  473. Forced                                   : No

  474. Text #30
  475. ID                                       : 33
  476. Format                                   : PGS
  477. Muxing mode                              : zlib
  478. Codec ID                                 : S_HDMV/PGS
  479. Codec ID/Info                            : Picture based subtitle format used on BDs/HD-DVDs
  480. Duration                                 : 1 h 44 min
  481. Bit rate                                 : 16.7 kb/s
  482. Count of elements                        : 1572
  483. Stream size                              : 12.5 MiB (0%)
  484. Title                                    : Swedish-PGS
  485. Language                                 : Swedish
  486. Default                                  : No
  487. Forced                                   : No

  488. Text #31
  489. ID                                       : 34
  490. Format                                   : PGS
  491. Muxing mode                              : zlib
  492. Codec ID                                 : S_HDMV/PGS
  493. Codec ID/Info                            : Picture based subtitle format used on BDs/HD-DVDs
  494. Duration                                 : 1 h 44 min
  495. Bit rate                                 : 17.9 kb/s
  496. Count of elements                        : 1650
  497. Stream size                              : 13.4 MiB (0%)
  498. Title                                    : Thai-PGS
  499. Language                                 : Thai
  500. Default                                  : No
  501. Forced                                   : No

  502. Text #32
  503. ID                                       : 35
  504. Format                                   : PGS
  505. Muxing mode                              : zlib
  506. Codec ID                                 : S_HDMV/PGS
  507. Codec ID/Info                            : Picture based subtitle format used on BDs/HD-DVDs
  508. Duration                                 : 1 h 44 min
  509. Bit rate                                 : 18.9 kb/s
  510. Count of elements                        : 1634
  511. Stream size                              : 14.2 MiB (0%)
  512. Title                                    : Turkish-PGS
  513. Language                                 : Turkish
  514. Default                                  : No
  515. Forced                                   : No

  516. Menu
  517. 00:00:00.000                             : en:Chapter 01
  518. 00:04:10.667                             : en:Chapter 02
  519. 00:14:30.244                             : en:Chapter 03
  520. 00:21:08.016                             : en:Chapter 04
  521. 00:29:11.499                             : en:Chapter 05
  522. 00:34:24.896                             : en:Chapter 06
  523. 00:41:06.630                             : en:Chapter 07
  524. 00:50:15.721                             : en:Chapter 08
  525. 00:56:19.959                             : en:Chapter 09
  526. 01:06:19.183                             : en:Chapter 10
  527. 01:15:24.853                             : en:Chapter 11
  528. 01:22:50.548                             : en:Chapter 12
  529. 01:30:35.221                             : en:Chapter 13
  530. 01:34:55.481                             : en:Chapter 14
  531. 01:38:53.969                             : en:Chapter 15
  532. 01:42:43.657                             : en:Chapter 16
復制代碼









本帖隱藏的下載地址需要VIP會員才可瀏覽,您需要升級才可瀏覽,點擊這里升級VIP
分享到:  QQ好友和群QQ好友和群
收藏收藏
VIP會員免費任意下載本站所有資源!---點擊開通
回復

使用道具 舉報

懶得打字嘛,點擊右側快捷回復 【右側內容,后臺自定義】
您需要登錄后才可以回帖 登錄 | 立即注冊

本版積分規則

QQ|Archiver|手機版|小黑屋| 中國高清網 |網站地圖

GMT+8, 2019-12-9 10:26 , Processed in 0.269955 second(s), 36 queries .

Powered by HDchina X3.4

Copyright 2017-2019©HDchina.All right reserved

返回頂部 聯系我們
胜负彩19080期