查看: 47|回復: 1
打印 上一主題 下一主題

[動畫片] 命運/冠位指定:序章 Fate.Grand.Order.First.Order.2016.JAPANESE.1080p.BluRay.x264.DTS-FGT 7.32GB

[復制鏈接]

 成長值: 3400

級別:資源管理組

注冊時間
2017-10-20
最后登錄
2019-12-9
聽眾
1
收聽
0
主題
88290
藍光幣
69430 枚
貢獻
12652 點
跳轉到指定樓層
樓主
發表于 2019-10-30 20:46:45 | 只看該作者 |只看大圖 回帖獎勵 |倒序瀏覽 |閱讀模式


譯  名 命運 / 冠位指定:序章 / FGO
片  名 Fate / Grand Order -First Order-
年  代 2016
產  地 日本
類  別 動畫
語  言 日語
上映日期 2016-12-31(日本)
IMDb評分  5.5/10 from 449 users
IMDb鏈接  https://www.imdb.com/title/tt6213810
豆瓣評分 6.5/10 from 2373 users
豆瓣鏈接 https://movie.douban.com/subject/26906538/
片  長 72分鐘
導  演 難波日登志 Hitoshi Nanba
編  劇 奈須蘑菇 Kinoko Nasu / 關根亞由美 Ayumi Sekine
主  演 島崎信長 Nobunaga Shimazaki
       高橋李依 Rie Takahashi
       川澄綾子 Ayako Kawasumi
       米澤圓 Madoka Yonezawa
       鈴村健一 Kenichi Suzumura
       杉田智和 Tomokazu Sugita


標  簽 動畫 | Fate | 日本 | 2016 | type-moon | 型月 | 游戲改編 | OVA

簡  介  

  改編自TYPE-MOON發行的同名手機游戲:描述在公元2015年,一個魔術尚存的最后時代之中。人理繼續保障機關「Chaldea」,透過近未來觀測鏡「Sheba」突然發現人類即將在接下來的2016年中毀滅。為了針對異象及時空特異典進行解析及干涉,他們利用被統稱為「Grand Order」的禁忌儀式,將術師靈子化之后送回過去,只為阻止人類歷史就此中斷。
  1. Video
  2. ID                                       : 1
  3. Format                                   : AVC
  4. Format/Info                              : Advanced Video Codec
  5. Format profile                           : [email protected]
  6. Format settings                          : CABAC / 4 Ref Frames
  7. Format settings, CABAC                   : Yes
  8. Format settings, Reference frames        : 4 frames
  9. Codec ID                                 : V_MPEG4/ISO/AVC
  10. Duration                                 : 1 h 12 min
  11. Bit rate                                 : 11.5 Mb/s
  12. Width                                    : 1 920 pixels
  13. Height                                   : 1 080 pixels
  14. Display aspect ratio                     : 16:9
  15. Frame rate mode                          : Constant
  16. Frame rate                               : 23.976 (24000/1001) FPS
  17. Color space                              : YUV
  18. Chroma subsampling                       : 4:2:0
  19. Bit depth                                : 8 bits
  20. Scan type                                : Progressive
  21. Bits/(Pixel*Frame)                       : 0.231
  22. Stream size                              : 5.80 GiB (79%)
  23. Title                                    : Fate.Grand.Order-First.Order-2016.JAPANESE.1080p.BluRay.x264.DTS-FGT
  24. Writing library                          : x264 core 148 r2795M aaa9aa8
  25. Encoding settings                        : cabac=1 / ref=4 / deblock=1:1:1 / analyse=0x3:0x113 / me=umh / subme=8 / psy=1 / psy_rd=0.50:0.00 / mixed_ref=1 / me_range=32 / chroma_me=1 / trellis=2 / 8x8dct=1 / cqm=0 / deadzone=21,11 / fast_pskip=1 / chroma_qp_offset=-2 / threads=34 / lookahead_threads=3 / sliced_threads=0 / nr=0 / decimate=1 / interlaced=0 / bluray_compat=0 / constrained_intra=0 / bframes=3 / b_pyramid=2 / b_adapt=1 / b_bias=0 / direct=3 / weightb=1 / open_gop=0 / weightp=2 / keyint=240 / keyint_min=24 / scenecut=40 / intra_refresh=0 / rc_lookahead=50 / rc=2pass / mbtree=1 / bitrate=11500 / ratetol=1.0 / qcomp=0.60 / qpmin=0 / qpmax=69 / qpstep=4 / cplxblur=20.0 / qblur=0.5 / vbv_maxrate=31250 / vbv_bufsize=31250 / nal_hrd=none / filler=0 / ip_ratio=1.40 / aq=3:0.60
  26. Language                                 : Japanese
  27. Default                                  : Yes
  28. Forced                                   : No

  29. Audio #1
  30. ID                                       : 2
  31. Format                                   : DTS
  32. Format/Info                              : Digital Theater Systems
  33. Codec ID                                 : A_DTS
  34. Duration                                 : 1 h 12 min
  35. Bit rate mode                            : Constant
  36. Bit rate                                 : 1 509 kb/s
  37. Channel(s)                               : 2 channels
  38. Channel layout                           : L R
  39. Sampling rate                            : 48.0 kHz
  40. Frame rate                               : 93.750 FPS (512 SPF)
  41. Bit depth                                : 16 bits
  42. Compression mode                         : Lossy
  43. Stream size                              : 780 MiB (10%)
  44. Title                                    : Fate.Grand.Order-First.Order-2016.JAPANESE.1080p.BluRay.x264.DTS-FGT
  45. Language                                 : Japanese
  46. Default                                  : Yes
  47. Forced                                   : No

  48. Audio #2
  49. ID                                       : 3
  50. Format                                   : DTS
  51. Format/Info                              : Digital Theater Systems
  52. Codec ID                                 : A_DTS
  53. Duration                                 : 1 h 12 min
  54. Bit rate mode                            : Constant
  55. Bit rate                                 : 1 509 kb/s
  56. Channel(s)                               : 2 channels
  57. Channel layout                           : L R
  58. Sampling rate                            : 48.0 kHz
  59. Frame rate                               : 93.750 FPS (512 SPF)
  60. Bit depth                                : 16 bits
  61. Compression mode                         : Lossy
  62. Stream size                              : 780 MiB (10%)
  63. Title                                    : Fate.Grand.Order-First.Order-2016.JAPANESE.1080p.BluRay.x264.DTS-FGT
  64. Language                                 : English
  65. Default                                  : No
  66. Forced                                   : No

  67. Text
  68. ID                                       : 4
  69. Format                                   : UTF-8
  70. Codec ID                                 : S_TEXT/UTF8
  71. Codec ID/Info                            : UTF-8 Plain Text
  72. Duration                                 : 1 h 10 min
  73. Bit rate                                 : 59 b/s
  74. Count of elements                        : 874
  75. Stream size                              : 30.9 KiB (0%)
  76. Language                                 : English
  77. Default                                  : Yes
  78. Forced                                   : No

  79. Menu
  80. 00:00:00.000                             : en:Chapter 1
  81. 00:02:31.568                             : en:Chapter 2
  82. 00:08:49.612                             : en:Chapter 3
  83. 00:15:03.277                             : en:Chapter 4
  84. 00:20:43.242                             : en:Chapter 5
  85. 00:22:40.025                             : en:Chapter 6
  86. 00:29:30.769                             : en:Chapter 7
  87. 00:36:29.020                             : en:Chapter 8
  88. 00:41:04.044                             : en:Chapter 9
  89. 00:46:54.061                             : en:Chapter 10
  90. 00:51:41.223                             : en:Chapter 11
  91. 00:59:28.106                             : en:Chapter 12
  92. 01:06:19.475                             : en:Chapter 13
  93. 01:10:44.031                             : en:Chapter 14
復制代碼








分享到:  QQ好友和群QQ好友和群
收藏收藏
VIP會員免費任意下載本站所有資源!---點擊開通
回復

使用道具 舉報

已拋錨 成長值: 300

級別:初級觀眾 Lv.1

注冊時間
2019-6-8
最后登錄
2019-11-11
聽眾
7
收聽
0
主題
0
藍光幣
7 枚
貢獻
0 點
沙發
發表于 2019-11-3 09:55:52 | 只看該作者

這東西我收了!謝謝樓主!中國高清電影網真好!
VIP會員免費任意下載本站所有資源!---點擊開通
回復

使用道具 舉報

懶得打字嘛,點擊右側快捷回復 【右側內容,后臺自定義】
您需要登錄后才可以回帖 登錄 | 立即注冊

本版積分規則

QQ|Archiver|手機版|小黑屋| 中國高清網 |網站地圖

GMT+8, 2019-12-9 10:33 , Processed in 0.391508 second(s), 36 queries .

Powered by HDchina X3.4

Copyright 2017-2019©HDchina.All right reserved

返回頂部 聯系我們
胜负彩19080期