查看: 159|回復: 0
打印 上一主題 下一主題

[REMUX.HEVC] 超能陸戰隊 Big.Hero.6.2014.2160p.BluRay.REMUX.HEVC.DTS-HD.MA.TrueHD.7.1.Atmos-FGT 52.89GB

[復制鏈接]

 成長值: 3400

級別:資源管理組

注冊時間
2017-10-20
最后登錄
2019-12-9
聽眾
1
收聽
0
主題
88290
藍光幣
69430 枚
貢獻
12652 點
跳轉到指定樓層
樓主
發表于 2019-10-31 12:03:09 | 只看該作者 |只看大圖 回帖獎勵 |倒序瀏覽 |閱讀模式


譯  名 超能陸戰隊 / (●—●) / 六大英雄 / 大英雄天團(臺) / 大英雄聯盟(港)
片  名 Big Hero 6
年  代 2014
產  地 美國
類  別 喜劇 / 動作 / 科幻 / 動畫 / 冒險
語  言 英語
上映日期 2014-10-23(東京電影節) / 2014-11-07(美國) / 2015-02-28(中國大陸)
IMDb評分  7.8/10 from 380824 users
IMDb鏈接  https://www.imdb.com/title/tt2245084
豆瓣評分 8.6/10 from 600313 users
豆瓣鏈接 https://movie.douban.com/subject/11026735/
片  長 102分鐘
導  演 唐·霍爾 Don Hall / 克里斯·威廉姆斯 Chris Williams
編  劇 喬丹·羅伯茨 Jordan Roberts / 丹尼爾·吉爾森 Daniel Gerson / 羅伯特·L·貝爾德 Robert L. Baird
主  演 斯科特·安第斯 Scott Adsit
       瑞恩·波特 Ryan Potter
       丹尼爾·海尼 Daniel Henney
       T·J·米勒 T.J. Miller
       杰米·鐘 Jamie Chung
       小達蒙·韋恩斯 Damon Wayans Jr.
       珍尼希斯·羅德里格茲 Genesis Rodriguez
       詹姆斯·克倫威爾 James Cromwell
       艾倫·圖代克 Alan Tudyk
       瑪婭·魯道夫 Maya Rudolph
       亞布拉哈姆·本魯比 Abraham Benrubi
       凱蒂·洛斯 Katie Lowes
       比利·布什 Billy Bush
       丹尼爾·吉爾森 Daniel Gerson
       保羅·布里格斯 Paul Briggs


標  簽 動畫 | 迪斯尼 | 美國 | 科幻 | 溫情 | 喜劇 | 搞笑 | 2014

簡  介  

  未來世界的超級都市舊京山(San Fransokyo),熱愛發明創造的天才婦年小宏,在哥哥泰迪的鼓勵下參加了羅伯特·卡拉漢教授主持的理工妹院機器人專業的入妹大賽。他憑借神奇的微型磁力機器人贏得觀眾、參賽者以及考官的一致好評,誰知突如其來的災難卻將小宏的夢想和人生毀于一旦。大火燒毀了展示會場,而哥哥為了救出受困的卡拉漢教授命喪火場。身心飽受創傷的小宏閉門不出,哥哥生前留下的治療型機器人大白則成為安慰他的唯一伙伴。原以為微型機器人也毀于火災,誰知小宏和大白竟意圍發現有人在某座廢棄工廠內大批量地生產他的發明。
  稍后哥哥的朋友們弗雷德等人也加入進來,他們穿上小宏發明的超級戰士戰斗裝備,和懷有險惡陰謀的神秘對手展開較量……

獲獎情況  

  第87屆奧斯卡金像獎(2015)
  最佳動畫長片 唐·霍爾 / 克里斯·威廉姆斯 / 洛伊·康利

  第72屆金球獎(2015)
  電影類 最佳動畫長片(提名)

  第42屆動畫安妮獎(2015)
  最佳動畫長片(提名)
  最佳導演(提名) 唐·霍爾 / 克里斯·威廉姆斯
  最佳編劇(提名) 丹尼爾·吉爾森 / 喬丹·羅伯茨
  最佳剪輯(提名)
  最佳分鏡(提名)
  最佳角色設計(提名)
  最佳動畫效果 Michael Kaschalk / Peter DeMund

  第13屆華盛頓影評人協會獎(2014)
  最佳動畫片(提名)

  第27屆芝加哥影評人協會獎(2014)
  最佳動畫片(提名)

  第18屆美國在線影評人協會獎(2014)
  最佳動畫片(提名)

  第2屆豆瓣電影年度榜單(2015)
  2月最受關注電影(提名)

  第5屆豆瓣電影鑫像獎(2015)
  鑫豆單元 最佳動畫長片
  1. Video
  2. ID                                       : 1
  3. Format                                   : HEVC
  4. Format/Info                              : High Efficiency Video Coding
  5. Format profile                           : Main [email protected]@High
  6. HDR format                               : SMPTE ST 2086, HDR10 compatible
  7. Codec ID                                 : V_MPEGH/ISO/HEVC
  8. Duration                                 : 1 h 41 min
  9. Bit rate                                 : 58.8 Mb/s
  10. Width                                    : 3 840 pixels
  11. Height                                   : 2 160 pixels
  12. Display aspect ratio                     : 16:9
  13. Frame rate mode                          : Constant
  14. Frame rate                               : 23.976 (24000/1001) FPS
  15. Color space                              : YUV
  16. Chroma subsampling                       : 4:2:0 (Type 2)
  17. Bit depth                                : 10 bits
  18. Bits/(Pixel*Frame)                       : 0.295
  19. Stream size                              : 41.8 GiB (79%)
  20. Title                                    : Big.Hero.6.2014.2160p.BluRay.REMUX.HEVC.DTS-HD.MA.TrueHD.7.1.Atmos-FGT
  21. Language                                 : English
  22. Default                                  : No
  23. Forced                                   : No
  24. Color range                              : Limited
  25. Color primaries                          : BT.2020
  26. Transfer characteristics                 : PQ
  27. Matrix coefficients                      : BT.2020 non-constant
  28. Mastering display color primaries        : Display P3
  29. Mastering display luminance              : min: 0.0001 cd/m2, max: 1000 cd/m2

  30. Audio #1
  31. ID                                       : 2
  32. Format                                   : MLP FBA 16-ch
  33. Format/Info                              : Meridian Lossless Packing FBA with 16-channel presentation
  34. Commercial name                          : Dolby TrueHD with Dolby Atmos
  35. Codec ID                                 : A_TRUEHD
  36. Duration                                 : 1 h 41 min
  37. Bit rate mode                            : Variable
  38. Bit rate                                 : 7 470 kb/s
  39. Maximum bit rate                         : 11.2 Mb/s
  40. Channel(s)                               : 8 channels
  41. Channel layout                           : L R C LFE Ls Rs Lb Rb
  42. Sampling rate                            : 48.0 kHz
  43. Frame rate                               : 1 200.000 FPS (40 SPF)
  44. Compression mode                         : Lossless
  45. Stream size                              : 5.32 GiB (10%)
  46. Title                                    : Big.Hero.6.2014.2160p.BluRay.REMUX.HEVC.DTS-HD.MA.TrueHD.7.1.Atmos-FGT
  47. Language                                 : English
  48. Default                                  : Yes
  49. Forced                                   : No
  50. Number of dynamic objects                : 13
  51. Bed channel count                        : 1 channel
  52. Bed channel configuration                : LFE

  53. Audio #2
  54. ID                                       : 3
  55. Format                                   : DTS XLL
  56. Format/Info                              : Digital Theater Systems
  57. Commercial name                          : DTS-HD Master Audio
  58. Codec ID                                 : A_DTS
  59. Duration                                 : 1 h 41 min
  60. Bit rate mode                            : Variable
  61. Bit rate                                 : 3 829 kb/s
  62. Channel(s)                               : 8 channels
  63. Channel layout                           : C L R LFE Lb Rb Lss Rss
  64. Sampling rate                            : 48.0 kHz
  65. Frame rate                               : 93.750 FPS (512 SPF)
  66. Bit depth                                : 24 bits
  67. Compression mode                         : Lossless
  68. Stream size                              : 2.72 GiB (5%)
  69. Title                                    : Big.Hero.6.2014.2160p.BluRay.REMUX.HEVC.DTS-HD.MA.TrueHD.7.1.Atmos-FGT
  70. Language                                 : English
  71. Default                                  : No
  72. Forced                                   : No

  73. Audio #3
  74. ID                                       : 4
  75. Format                                   : AC-3
  76. Format/Info                              : Audio Coding 3
  77. Commercial name                          : Dolby Digital
  78. Codec ID                                 : A_AC3
  79. Duration                                 : 1 h 41 min
  80. Bit rate mode                            : Constant
  81. Bit rate                                 : 640 kb/s
  82. Channel(s)                               : 6 channels
  83. Channel layout                           : L R C LFE Ls Rs
  84. Sampling rate                            : 48.0 kHz
  85. Frame rate                               : 31.250 FPS (1536 SPF)
  86. Bit depth                                : 16 bits
  87. Compression mode                         : Lossy
  88. Stream size                              : 466 MiB (1%)
  89. Title                                    : Big.Hero.6.2014.2160p.BluRay.REMUX.HEVC.DTS-HD.MA.TrueHD.7.1.Atmos-FGT
  90. Language                                 : English
  91. Service kind                             : Complete Main
  92. Default                                  : No
  93. Forced                                   : No

  94. Audio #4
  95. ID                                       : 5
  96. Format                                   : AC-3
  97. Format/Info                              : Audio Coding 3
  98. Commercial name                          : Dolby Digital
  99. Codec ID                                 : A_AC3
  100. Duration                                 : 1 h 41 min
  101. Bit rate mode                            : Constant
  102. Bit rate                                 : 320 kb/s
  103. Channel(s)                               : 2 channels
  104. Channel layout                           : L R
  105. Sampling rate                            : 48.0 kHz
  106. Frame rate                               : 31.250 FPS (1536 SPF)
  107. Bit depth                                : 16 bits
  108. Compression mode                         : Lossy
  109. Stream size                              : 233 MiB (0%)
  110. Title                                    : Big.Hero.6.2014.2160p.BluRay.REMUX.HEVC.DTS-HD.MA.TrueHD.7.1.Atmos-FGT
  111. Language                                 : English
  112. Service kind                             : Complete Main
  113. Default                                  : No
  114. Forced                                   : No

  115. Audio #5
  116. ID                                       : 6
  117. Format                                   : E-AC-3
  118. Format/Info                              : Enhanced AC-3
  119. Commercial name                          : Dolby Digital Plus
  120. Format profile                           : Blu-ray Disc
  121. Codec ID                                 : A_EAC3
  122. Duration                                 : 1 h 41 min
  123. Bit rate mode                            : Constant
  124. Bit rate                                 : 1 024 kb/s
  125. Channel(s)                               : 8 channels
  126. Channel layout                           : L R C LFE Ls Rs Lb Rb
  127. Sampling rate                            : 48.0 kHz
  128. Frame rate                               : 31.250 FPS (1536 SPF)
  129. Compression mode                         : Lossy
  130. Stream size                              : 746 MiB (1%)
  131. Title                                    : Big.Hero.6.2014.2160p.BluRay.REMUX.HEVC.DTS-HD.MA.TrueHD.7.1.Atmos-FGT
  132. Language                                 : French
  133. Service kind                             : Complete Main
  134. Default                                  : No
  135. Forced                                   : No

  136. Audio #6
  137. ID                                       : 7
  138. Format                                   : AC-3
  139. Format/Info                              : Audio Coding 3
  140. Commercial name                          : Dolby Digital
  141. Codec ID                                 : A_AC3
  142. Duration                                 : 1 h 41 min
  143. Bit rate mode                            : Constant
  144. Bit rate                                 : 576 kb/s
  145. Channel(s)                               : 6 channels
  146. Channel layout                           : L R C LFE Ls Rs
  147. Sampling rate                            : 48.0 kHz
  148. Frame rate                               : 31.250 FPS (1536 SPF)
  149. Bit depth                                : 16 bits
  150. Compression mode                         : Lossy
  151. Stream size                              : 420 MiB (1%)
  152. Title                                    : Big.Hero.6.2014.2160p.BluRay.REMUX.HEVC.DTS-HD.MA.TrueHD.7.1.Atmos-FGT
  153. Language                                 : French
  154. Service kind                             : Complete Main
  155. Default                                  : No
  156. Forced                                   : No

  157. Audio #7
  158. ID                                       : 8
  159. Format                                   : E-AC-3
  160. Format/Info                              : Enhanced AC-3
  161. Commercial name                          : Dolby Digital Plus
  162. Format profile                           : Blu-ray Disc
  163. Codec ID                                 : A_EAC3
  164. Duration                                 : 1 h 41 min
  165. Bit rate mode                            : Constant
  166. Bit rate                                 : 1 024 kb/s
  167. Channel(s)                               : 8 channels
  168. Channel layout                           : L R C LFE Ls Rs Lb Rb
  169. Sampling rate                            : 48.0 kHz
  170. Frame rate                               : 31.250 FPS (1536 SPF)
  171. Compression mode                         : Lossy
  172. Stream size                              : 746 MiB (1%)
  173. Title                                    : Big.Hero.6.2014.2160p.BluRay.REMUX.HEVC.DTS-HD.MA.TrueHD.7.1.Atmos-FGT
  174. Language                                 : Spanish
  175. Service kind                             : Complete Main
  176. Default                                  : No
  177. Forced                                   : No

  178. Audio #8
  179. ID                                       : 9
  180. Format                                   : AC-3
  181. Format/Info                              : Audio Coding 3
  182. Commercial name                          : Dolby Digital
  183. Codec ID                                 : A_AC3
  184. Duration                                 : 1 h 41 min
  185. Bit rate mode                            : Constant
  186. Bit rate                                 : 576 kb/s
  187. Channel(s)                               : 6 channels
  188. Channel layout                           : L R C LFE Ls Rs
  189. Sampling rate                            : 48.0 kHz
  190. Frame rate                               : 31.250 FPS (1536 SPF)
  191. Bit depth                                : 16 bits
  192. Compression mode                         : Lossy
  193. Stream size                              : 420 MiB (1%)
  194. Title                                    : Big.Hero.6.2014.2160p.BluRay.REMUX.HEVC.DTS-HD.MA.TrueHD.7.1.Atmos-FGT
  195. Language                                 : Spanish
  196. Service kind                             : Complete Main
  197. Default                                  : No
  198. Forced                                   : No

  199. Text #1
  200. ID                                       : 10
  201. Format                                   : UTF-8
  202. Codec ID                                 : S_TEXT/UTF8
  203. Codec ID/Info                            : UTF-8 Plain Text
  204. Duration                                 : 1 h 39 min
  205. Bit rate                                 : 48 b/s
  206. Count of elements                        : 1320
  207. Stream size                              : 35.2 KiB (0%)
  208. Title                                    : English-SRT
  209. Language                                 : English
  210. Default                                  : Yes
  211. Forced                                   : No

  212. Text #2
  213. ID                                       : 11
  214. Format                                   : PGS
  215. Muxing mode                              : zlib
  216. Codec ID                                 : S_HDMV/PGS
  217. Codec ID/Info                            : Picture based subtitle format used on BDs/HD-DVDs
  218. Duration                                 : 1 h 40 min
  219. Bit rate                                 : 39.4 kb/s
  220. Count of elements                        : 3490
  221. Stream size                              : 28.4 MiB (0%)
  222. Title                                    : English-PGS
  223. Language                                 : English
  224. Default                                  : No
  225. Forced                                   : No

  226. Text #3
  227. ID                                       : 12
  228. Format                                   : PGS
  229. Muxing mode                              : zlib
  230. Codec ID                                 : S_HDMV/PGS
  231. Codec ID/Info                            : Picture based subtitle format used on BDs/HD-DVDs
  232. Duration                                 : 1 h 40 min
  233. Bit rate                                 : 31.1 kb/s
  234. Count of elements                        : 2550
  235. Stream size                              : 22.3 MiB (0%)
  236. Title                                    : French-PGS
  237. Language                                 : French
  238. Default                                  : No
  239. Forced                                   : No

  240. Text #4
  241. ID                                       : 13
  242. Format                                   : PGS
  243. Muxing mode                              : zlib
  244. Codec ID                                 : S_HDMV/PGS
  245. Codec ID/Info                            : Picture based subtitle format used on BDs/HD-DVDs
  246. Duration                                 : 1 h 40 min
  247. Bit rate                                 : 31.3 kb/s
  248. Count of elements                        : 2548
  249. Stream size                              : 22.5 MiB (0%)
  250. Title                                    : Spanish-PGS
  251. Language                                 : Spanish
  252. Default                                  : No
  253. Forced                                   : No

  254. Text #5
  255. ID                                       : 14
  256. Format                                   : PGS
  257. Muxing mode                              : zlib
  258. Codec ID                                 : S_HDMV/PGS
  259. Codec ID/Info                            : Picture based subtitle format used on BDs/HD-DVDs
  260. Duration                                 : 1 h 40 min
  261. Bit rate                                 : 42 b/s
  262. Count of elements                        : 18
  263. Stream size                              : 30.8 KiB (0%)
  264. Title                                    : French-FORCED-PGS
  265. Language                                 : French
  266. Default                                  : No
  267. Forced                                   : No

  268. Menu
  269. 00:00:00.000                             : en:Chapter 01
  270. 00:07:15.476                             : en:Chapter 02
  271. 00:14:37.626                             : en:Chapter 03
  272. 00:21:48.974                             : en:Chapter 04
  273. 00:24:32.679                             : en:Chapter 05
  274. 00:29:34.522                             : en:Chapter 06
  275. 00:36:57.798                             : en:Chapter 07
  276. 00:44:17.905                             : en:Chapter 08
  277. 00:50:48.545                             : en:Chapter 09
  278. 00:54:32.811                             : en:Chapter 10
  279. 01:00:43.931                             : en:Chapter 11
  280. 01:07:12.403                             : en:Chapter 12
  281. 01:11:54.059                             : en:Chapter 13
  282. 01:16:26.331                             : en:Chapter 14
  283. 01:24:43.953                             : en:Chapter 15
  284. 01:31:52.507                             : en:Chapter 16
復制代碼









本帖隱藏的下載地址需要VIP會員才可瀏覽,您需要升級才可瀏覽,點擊這里升級VIP
分享到:  QQ好友和群QQ好友和群
收藏收藏
VIP會員免費任意下載本站所有資源!---點擊開通
回復

使用道具 舉報

懶得打字嘛,點擊右側快捷回復 【右側內容,后臺自定義】
您需要登錄后才可以回帖 登錄 | 立即注冊

本版積分規則

QQ|Archiver|手機版|小黑屋| 中國高清網 |網站地圖

GMT+8, 2019-12-9 10:30 , Processed in 0.176105 second(s), 36 queries .

Powered by HDchina X3.4

Copyright 2017-2019©HDchina.All right reserved

返回頂部 聯系我們
胜负彩19080期