查看: 169|回復: 1
打印 上一主題 下一主題

[10bit.SDR] 超能陸戰隊 Big.Hero.6.2014.2160p.BluRay.x265.10bit.SDR.DTS-HD.MA.TrueHD.7.1.Atmos-SWTYBLZ 20.66GB

[復制鏈接]

 成長值: 3400

級別:資源管理組

注冊時間
2017-10-20
最后登錄
2019-12-9
聽眾
1
收聽
0
主題
88290
藍光幣
69434 枚
貢獻
12652 點
跳轉到指定樓層
樓主
發表于 2019-10-31 12:05:04 | 只看該作者 |只看大圖 回帖獎勵 |倒序瀏覽 |閱讀模式


譯  名 超能陸戰隊 / (●—●) / 六大英雄 / 大英雄天團(臺) / 大英雄聯盟(港)
片  名 Big Hero 6
年  代 2014
產  地 美國
類  別 喜劇 / 動作 / 科幻 / 動畫 / 冒險
語  言 英語
上映日期 2014-10-23(東京電影節) / 2014-11-07(美國) / 2015-02-28(中國大陸)
IMDb評分  7.8/10 from 380824 users
IMDb鏈接  https://www.imdb.com/title/tt2245084
豆瓣評分 8.6/10 from 600313 users
豆瓣鏈接 https://movie.douban.com/subject/11026735/
片  長 102分鐘
導  演 唐·霍爾 Don Hall / 克里斯·威廉姆斯 Chris Williams
編  劇 喬丹·羅伯茨 Jordan Roberts / 丹尼爾·吉爾森 Daniel Gerson / 羅伯特·L·貝爾德 Robert L. Baird
主  演 斯科特·安第斯 Scott Adsit
       瑞恩·波特 Ryan Potter
       丹尼爾·海尼 Daniel Henney
       T·J·米勒 T.J. Miller
       杰米·鐘 Jamie Chung
       小達蒙·韋恩斯 Damon Wayans Jr.
       珍尼希斯·羅德里格茲 Genesis Rodriguez
       詹姆斯·克倫威爾 James Cromwell
       艾倫·圖代克 Alan Tudyk
       瑪婭·魯道夫 Maya Rudolph
       亞布拉哈姆·本魯比 Abraham Benrubi
       凱蒂·洛斯 Katie Lowes
       比利·布什 Billy Bush
       丹尼爾·吉爾森 Daniel Gerson
       保羅·布里格斯 Paul Briggs


標  簽 動畫 | 迪斯尼 | 美國 | 科幻 | 溫情 | 喜劇 | 搞笑 | 2014

簡  介  

  未來世界的超級都市舊京山(San Fransokyo),熱愛發明創造的天才婦年小宏,在哥哥泰迪的鼓勵下參加了羅伯特·卡拉漢教授主持的理工妹院機器人專業的入妹大賽。他憑借神奇的微型磁力機器人贏得觀眾、參賽者以及考官的一致好評,誰知突如其來的災難卻將小宏的夢想和人生毀于一旦。大火燒毀了展示會場,而哥哥為了救出受困的卡拉漢教授命喪火場。身心飽受創傷的小宏閉門不出,哥哥生前留下的治療型機器人大白則成為安慰他的唯一伙伴。原以為微型機器人也毀于火災,誰知小宏和大白竟意圍發現有人在某座廢棄工廠內大批量地生產他的發明。
  稍后哥哥的朋友們弗雷德等人也加入進來,他們穿上小宏發明的超級戰士戰斗裝備,和懷有險惡陰謀的神秘對手展開較量……

獲獎情況  

  第87屆奧斯卡金像獎(2015)
  最佳動畫長片 唐·霍爾 / 克里斯·威廉姆斯 / 洛伊·康利

  第72屆金球獎(2015)
  電影類 最佳動畫長片(提名)

  第42屆動畫安妮獎(2015)
  最佳動畫長片(提名)
  最佳導演(提名) 唐·霍爾 / 克里斯·威廉姆斯
  最佳編劇(提名) 丹尼爾·吉爾森 / 喬丹·羅伯茨
  最佳剪輯(提名)
  最佳分鏡(提名)
  最佳角色設計(提名)
  最佳動畫效果 Michael Kaschalk / Peter DeMund

  第13屆華盛頓影評人協會獎(2014)
  最佳動畫片(提名)

  第27屆芝加哥影評人協會獎(2014)
  最佳動畫片(提名)

  第18屆美國在線影評人協會獎(2014)
  最佳動畫片(提名)

  第2屆豆瓣電影年度榜單(2015)
  2月最受關注電影(提名)

  第5屆豆瓣電影鑫像獎(2015)
  鑫豆單元 最佳動畫長片
  1. Video
  2. ID                                       : 1
  3. Format                                   : HEVC
  4. Format/Info                              : High Efficiency Video Coding
  5. Format profile                           : Main [email protected]@High
  6. Codec ID                                 : V_MPEGH/ISO/HEVC
  7. Duration                                 : 1 h 41 min
  8. Bit rate                                 : 16.9 Mb/s
  9. Width                                    : 3 840 pixels
  10. Height                                   : 1 608 pixels
  11. Display aspect ratio                     : 2.40:1
  12. Frame rate mode                          : Constant
  13. Frame rate                               : 23.976 (24000/1001) FPS
  14. Color space                              : YUV
  15. Chroma subsampling                       : 4:2:0
  16. Bit depth                                : 10 bits
  17. Bits/(Pixel*Frame)                       : 0.114
  18. Stream size                              : 12.0 GiB (58%)
  19. Title                                    : Big.Hero.6.2014.2160p.BluRay.x265.10bit.SDR.DTS-HD.MA.TrueHD.7.1.Atmos-SWTYBLZ
  20. Writing library                          : x265 3.0ed72af837053:[Windows][GCC 8.2.0][64 bit] 10bit
  21. Encoding settings                        : cpuid=1111039 / frame-threads=16 / numa-pools=44,44 / wpp / no-pmode / no-pme / no-psnr / no-ssim / log-level=2 / input-csp=1 / input-res=3840x1608 / interlace=0 / total-frames=146549 / level-idc=51 / high-tier=1 / uhd-bd=0 / ref=3 / no-allow-non-conformance / repeat-headers / annexb / aud / hrd / info / hash=0 / no-temporal-layers / no-open-gop / min-keyint=1 / keyint=24 / gop-lookahead=0 / bframes=6 / b-adapt=2 / b-pyramid / bframe-bias=0 / rc-lookahead=25 / lookahead-slices=4 / scenecut=40 / radl=0 / no-splice / no-intra-refresh / ctu=64 / min-cu-size=8 / no-rect / no-amp / max-tu-size=32 / tu-inter-depth=1 / tu-intra-depth=1 / limit-tu=0 / rdoq-level=0 / dynamic-rd=0.00 / no-ssim-rd / signhide / no-tskip / nr-intra=0 / nr-inter=0 / no-constrained-intra / strong-intra-smoothing / max-merge=2 / limit-refs=3 / no-limit-modes / me=1 / subme=2 / merange=57 / temporal-mvp / weightp / no-weightb / no-analyze-src-pics / deblock=1:1 / no-sao / no-sao-non-deblock / rd=3 / no-early-skip / rskip / no-fast-intra / no-tskip-fast / no-cu-lossless / no-b-intra / no-splitrd-skip / rdpenalty=0 / psy-rd=0.40 / psy-rdoq=0.00 / no-rd-refine / no-lossless / cbqpoffs=0 / crqpoffs=0 / rc=crf / crf=15.0 / qcomp=0.60 / qpstep=4 / stats-write=0 / stats-read=0 / vbv-maxrate=160000 / vbv-bufsize=160000 / vbv-init=0.9 / crf-max=0.0 / crf-min=0.0 / ipratio=1.40 / pbratio=1.30 / aq-mode=1 / aq-strength=0.40 / cutree / zone-count=0 / no-strict-cbr / qg-size=32 / no-rc-grain / qpmax=69 / qpmin=0 / no-const-vbv / sar=1 / overscan=0 / videoformat=5 / range=0 / colorprim=2 / transfer=2 / colormatrix=2 / chromaloc=0 / display-window=0 / max-cll=0,0 / min-luma=0 / max-luma=1023 / log2-max-poc-lsb=8 / vui-timing-info / vui-hrd-info / slices=1 / opt-qp-pps / opt-ref-list-length-pps / no-multi-pass-opt-rps / scenecut-bias=0.05 / no-opt-cu-delta-qp / no-aq-motion / no-hdr / no-hdr-opt / no-dhdr10-opt / no-idr-recovery-sei / analysis-reuse-level=5 / scale-factor=0 / refine-intra=0 / refine-inter=0 / refine-mv=0 / refine-ctu-distortion=0 / no-limit-sao / ctu-info=0 / no-lowpass-dct / refine-analysis-type=0 / copy-pic=1 / max-ausize-factor=1.0 / no-dynamic-refine / no-single-sei / no-hevc-aq / qp-adaptation-range=1.00
  22. Default                                  : Yes
  23. Forced                                   : No

  24. Audio #1
  25. ID                                       : 2
  26. Format                                   : MLP FBA 16-ch
  27. Format/Info                              : Meridian Lossless Packing FBA with 16-channel presentation
  28. Commercial name                          : Dolby TrueHD with Dolby Atmos
  29. Codec ID                                 : A_TRUEHD
  30. Duration                                 : 1 h 41 min
  31. Bit rate mode                            : Variable
  32. Bit rate                                 : 7 470 kb/s
  33. Maximum bit rate                         : 11.2 Mb/s
  34. Channel(s)                               : 8 channels
  35. Channel layout                           : L R C LFE Ls Rs Lb Rb
  36. Sampling rate                            : 48.0 kHz
  37. Frame rate                               : 1 200.000 FPS (40 SPF)
  38. Compression mode                         : Lossless
  39. Stream size                              : 5.32 GiB (26%)
  40. Title                                    : Big.Hero.6.2014.2160p.BluRay.x265.10bit.SDR.DTS-HD.MA.TrueHD.7.1.Atmos-SWTYBLZ
  41. Language                                 : English
  42. Default                                  : Yes
  43. Forced                                   : No
  44. Number of dynamic objects                : 13
  45. Bed channel count                        : 1 channel
  46. Bed channel configuration                : LFE

  47. Audio #2
  48. ID                                       : 3
  49. Format                                   : DTS XLL
  50. Format/Info                              : Digital Theater Systems
  51. Commercial name                          : DTS-HD Master Audio
  52. Codec ID                                 : A_DTS
  53. Duration                                 : 1 h 41 min
  54. Bit rate mode                            : Variable
  55. Bit rate                                 : 3 829 kb/s
  56. Channel(s)                               : 8 channels
  57. Channel layout                           : C L R LFE Lb Rb Lss Rss
  58. Sampling rate                            : 48.0 kHz
  59. Frame rate                               : 93.750 FPS (512 SPF)
  60. Bit depth                                : 24 bits
  61. Compression mode                         : Lossless
  62. Stream size                              : 2.72 GiB (13%)
  63. Title                                    : Big.Hero.6.2014.2160p.BluRay.x265.10bit.SDR.DTS-HD.MA.TrueHD.7.1.Atmos-SWTYBLZ
  64. Language                                 : English
  65. Default                                  : No
  66. Forced                                   : No

  67. Audio #3
  68. ID                                       : 4
  69. Format                                   : AC-3
  70. Format/Info                              : Audio Coding 3
  71. Commercial name                          : Dolby Digital
  72. Codec ID                                 : A_AC3
  73. Duration                                 : 1 h 41 min
  74. Bit rate mode                            : Constant
  75. Bit rate                                 : 640 kb/s
  76. Channel(s)                               : 6 channels
  77. Channel layout                           : L R C LFE Ls Rs
  78. Sampling rate                            : 48.0 kHz
  79. Frame rate                               : 31.250 FPS (1536 SPF)
  80. Bit depth                                : 16 bits
  81. Compression mode                         : Lossy
  82. Stream size                              : 466 MiB (2%)
  83. Title                                    : Big.Hero.6.2014.2160p.BluRay.x265.10bit.SDR.DTS-HD.MA.TrueHD.7.1.Atmos-SWTYBLZ
  84. Language                                 : English
  85. Service kind                             : Complete Main
  86. Default                                  : No
  87. Forced                                   : No

  88. Text #1
  89. ID                                       : 5
  90. Format                                   : UTF-8
  91. Codec ID                                 : S_TEXT/UTF8
  92. Codec ID/Info                            : UTF-8 Plain Text
  93. Duration                                 : 1 h 39 min
  94. Bit rate                                 : 48 b/s
  95. Count of elements                        : 1320
  96. Stream size                              : 35.2 KiB (0%)
  97. Title                                    : English-SRT
  98. Language                                 : English
  99. Default                                  : Yes
  100. Forced                                   : No

  101. Text #2
  102. ID                                       : 6
  103. Format                                   : PGS
  104. Muxing mode                              : zlib
  105. Codec ID                                 : S_HDMV/PGS
  106. Codec ID/Info                            : Picture based subtitle format used on BDs/HD-DVDs
  107. Duration                                 : 1 h 39 min
  108. Bit rate                                 : 29.3 kb/s
  109. Count of elements                        : 2640
  110. Stream size                              : 20.9 MiB (0%)
  111. Title                                    : English-PGS
  112. Language                                 : English
  113. Default                                  : No
  114. Forced                                   : No

  115. Text #3
  116. ID                                       : 7
  117. Format                                   : PGS
  118. Muxing mode                              : zlib
  119. Codec ID                                 : S_HDMV/PGS
  120. Codec ID/Info                            : Picture based subtitle format used on BDs/HD-DVDs
  121. Duration                                 : 1 h 40 min
  122. Bit rate                                 : 31.1 kb/s
  123. Count of elements                        : 2550
  124. Stream size                              : 22.3 MiB (0%)
  125. Title                                    : French-PGS
  126. Language                                 : French
  127. Default                                  : No
  128. Forced                                   : No

  129. Text #4
  130. ID                                       : 8
  131. Format                                   : PGS
  132. Muxing mode                              : zlib
  133. Codec ID                                 : S_HDMV/PGS
  134. Codec ID/Info                            : Picture based subtitle format used on BDs/HD-DVDs
  135. Duration                                 : 1 h 40 min
  136. Bit rate                                 : 28.2 kb/s
  137. Count of elements                        : 2472
  138. Stream size                              : 20.2 MiB (0%)
  139. Title                                    : Spanish-PGS
  140. Language                                 : Spanish
  141. Default                                  : No
  142. Forced                                   : No

  143. Menu
  144. 00:00:00.000                             : en:Chapter 01
  145. 00:07:15.476                             : en:Chapter 02
  146. 00:14:37.626                             : en:Chapter 03
  147. 00:21:48.974                             : en:Chapter 04
  148. 00:24:32.679                             : en:Chapter 05
  149. 00:29:34.522                             : en:Chapter 06
  150. 00:36:57.798                             : en:Chapter 07
  151. 00:44:17.905                             : en:Chapter 08
  152. 00:50:48.545                             : en:Chapter 09
  153. 00:54:32.811                             : en:Chapter 10
  154. 01:00:43.931                             : en:Chapter 11
  155. 01:07:12.403                             : en:Chapter 12
  156. 01:11:54.059                             : en:Chapter 13
  157. 01:16:26.331                             : en:Chapter 14
  158. 01:24:43.953                             : en:Chapter 15
  159. 01:31:52.507                             : en:Chapter 16
復制代碼









本帖隱藏的下載地址需要VIP會員才可瀏覽,您需要升級才可瀏覽,點擊這里升級VIP
分享到:  QQ好友和群QQ好友和群
收藏收藏
VIP會員免費任意下載本站所有資源!---點擊開通
回復

使用道具 舉報

級別:普通觀眾 Lv.2

注冊時間
2019-10-23
最后登錄
2019-12-7
聽眾
1
收聽
0
主題
0
藍光幣
16 枚
貢獻
0 點
沙發
發表于 2019-11-21 22:50:53 | 只看該作者

樓主太厲害了!樓主,電影應該很好看我覺得中國高清電影網真是個好地方!
VIP會員免費任意下載本站所有資源!---點擊開通
回復

使用道具 舉報

懶得打字嘛,點擊右側快捷回復 【右側內容,后臺自定義】
您需要登錄后才可以回帖 登錄 | 立即注冊

本版積分規則

QQ|Archiver|手機版|小黑屋| 中國高清網 |網站地圖

GMT+8, 2019-12-9 10:51 , Processed in 0.241847 second(s), 36 queries .

Powered by HDchina X3.4

Copyright 2017-2019©HDchina.All right reserved

返回頂部 聯系我們
胜负彩19080期