查看: 137|回復: 0
打印 上一主題 下一主題

[8bit.SDR] 超能陸戰隊 Big.Hero.6.2014.2160p.BluRay.x264.8bit.SDR.DTS-HD.MA.TrueHD.7.1.Atmos-SWTYBLZ 19.55GB

[復制鏈接]

 成長值: 3400

級別:資源管理組

注冊時間
2017-10-20
最后登錄
2019-12-9
聽眾
1
收聽
0
主題
88290
藍光幣
69442 枚
貢獻
12652 點
跳轉到指定樓層
樓主
發表于 2019-10-31 12:08:13 | 只看該作者 |只看大圖 回帖獎勵 |倒序瀏覽 |閱讀模式


譯  名 超能陸戰隊 / (●—●) / 六大英雄 / 大英雄天團(臺) / 大英雄聯盟(港)
片  名 Big Hero 6
年  代 2014
產  地 美國
類  別 喜劇 / 動作 / 科幻 / 動畫 / 冒險
語  言 英語
上映日期 2014-10-23(東京電影節) / 2014-11-07(美國) / 2015-02-28(中國大陸)
IMDb評分  7.8/10 from 380824 users
IMDb鏈接  https://www.imdb.com/title/tt2245084
豆瓣評分 8.6/10 from 600313 users
豆瓣鏈接 https://movie.douban.com/subject/11026735/
片  長 102分鐘
導  演 唐·霍爾 Don Hall / 克里斯·威廉姆斯 Chris Williams
編  劇 喬丹·羅伯茨 Jordan Roberts / 丹尼爾·吉爾森 Daniel Gerson / 羅伯特·L·貝爾德 Robert L. Baird
主  演 斯科特·安第斯 Scott Adsit
       瑞恩·波特 Ryan Potter
       丹尼爾·海尼 Daniel Henney
       T·J·米勒 T.J. Miller
       杰米·鐘 Jamie Chung
       小達蒙·韋恩斯 Damon Wayans Jr.
       珍尼希斯·羅德里格茲 Genesis Rodriguez
       詹姆斯·克倫威爾 James Cromwell
       艾倫·圖代克 Alan Tudyk
       瑪婭·魯道夫 Maya Rudolph
       亞布拉哈姆·本魯比 Abraham Benrubi
       凱蒂·洛斯 Katie Lowes
       比利·布什 Billy Bush
       丹尼爾·吉爾森 Daniel Gerson
       保羅·布里格斯 Paul Briggs


標  簽 動畫 | 迪斯尼 | 美國 | 科幻 | 溫情 | 喜劇 | 搞笑 | 2014

簡  介  

  未來世界的超級都市舊京山(San Fransokyo),熱愛發明創造的天才婦年小宏,在哥哥泰迪的鼓勵下參加了羅伯特·卡拉漢教授主持的理工妹院機器人專業的入妹大賽。他憑借神奇的微型磁力機器人贏得觀眾、參賽者以及考官的一致好評,誰知突如其來的災難卻將小宏的夢想和人生毀于一旦。大火燒毀了展示會場,而哥哥為了救出受困的卡拉漢教授命喪火場。身心飽受創傷的小宏閉門不出,哥哥生前留下的治療型機器人大白則成為安慰他的唯一伙伴。原以為微型機器人也毀于火災,誰知小宏和大白竟意圍發現有人在某座廢棄工廠內大批量地生產他的發明。
  稍后哥哥的朋友們弗雷德等人也加入進來,他們穿上小宏發明的超級戰士戰斗裝備,和懷有險惡陰謀的神秘對手展開較量……

獲獎情況  

  第87屆奧斯卡金像獎(2015)
  最佳動畫長片 唐·霍爾 / 克里斯·威廉姆斯 / 洛伊·康利

  第72屆金球獎(2015)
  電影類 最佳動畫長片(提名)

  第42屆動畫安妮獎(2015)
  最佳動畫長片(提名)
  最佳導演(提名) 唐·霍爾 / 克里斯·威廉姆斯
  最佳編劇(提名) 丹尼爾·吉爾森 / 喬丹·羅伯茨
  最佳剪輯(提名)
  最佳分鏡(提名)
  最佳角色設計(提名)
  最佳動畫效果 Michael Kaschalk / Peter DeMund

  第13屆華盛頓影評人協會獎(2014)
  最佳動畫片(提名)

  第27屆芝加哥影評人協會獎(2014)
  最佳動畫片(提名)

  第18屆美國在線影評人協會獎(2014)
  最佳動畫片(提名)

  第2屆豆瓣電影年度榜單(2015)
  2月最受關注電影(提名)

  第5屆豆瓣電影鑫像獎(2015)
  鑫豆單元 最佳動畫長片
  1. Video
  2. ID                                       : 1
  3. Format                                   : AVC
  4. Format/Info                              : Advanced Video Codec
  5. Format profile                           : [email protected]
  6. Format settings                          : CABAC / 7 Ref Frames
  7. Format settings, CABAC                   : Yes
  8. Format settings, Reference frames        : 7 frames
  9. Codec ID                                 : V_MPEG4/ISO/AVC
  10. Duration                                 : 1 h 41 min
  11. Bit rate                                 : 15.3 Mb/s
  12. Width                                    : 3 840 pixels
  13. Height                                   : 1 608 pixels
  14. Display aspect ratio                     : 2.40:1
  15. Frame rate mode                          : Constant
  16. Frame rate                               : 23.976 (24000/1001) FPS
  17. Color space                              : YUV
  18. Chroma subsampling                       : 4:2:0
  19. Bit depth                                : 8 bits
  20. Scan type                                : Progressive
  21. Bits/(Pixel*Frame)                       : 0.103
  22. Stream size                              : 10.9 GiB (56%)
  23. Title                                    : Big.Hero.6.2014.2160p.BluRay.x264.8bit.SDR.DTS-HD.MA.TrueHD.7.1.Atmos-SWTYBLZ
  24. Writing library                          : x264 core 157 r2935 545de2f
  25. Encoding settings                        : cabac=1 / ref=7 / deblock=1:1:1 / analyse=0x3:0x113 / me=umh / subme=10 / psy=1 / psy_rd=0.40:0.00 / mixed_ref=1 / me_range=48 / chroma_me=1 / trellis=2 / 8x8dct=1 / cqm=0 / deadzone=21,11 / fast_pskip=1 / chroma_qp_offset=-2 / threads=48 / lookahead_threads=5 / sliced_threads=0 / nr=0 / decimate=0 / interlaced=0 / bluray_compat=0 / constrained_intra=0 / bframes=5 / b_pyramid=2 / b_adapt=2 / b_bias=0 / direct=3 / weightb=1 / open_gop=0 / weightp=2 / keyint=250 / keyint_min=23 / scenecut=40 / intra_refresh=0 / rc_lookahead=50 / rc=crf / mbtree=1 / crf=17.0 / qcomp=0.60 / qpmin=0 / qpmax=69 / qpstep=4 / ip_ratio=1.40 / aq=1:0.60
  26. Language                                 : English
  27. Default                                  : Yes
  28. Forced                                   : No

  29. Audio #1
  30. ID                                       : 2
  31. Format                                   : MLP FBA 16-ch
  32. Format/Info                              : Meridian Lossless Packing FBA with 16-channel presentation
  33. Commercial name                          : Dolby TrueHD with Dolby Atmos
  34. Codec ID                                 : A_TRUEHD
  35. Duration                                 : 1 h 41 min
  36. Bit rate mode                            : Variable
  37. Bit rate                                 : 7 470 kb/s
  38. Maximum bit rate                         : 11.2 Mb/s
  39. Channel(s)                               : 8 channels
  40. Channel layout                           : L R C LFE Ls Rs Lb Rb
  41. Sampling rate                            : 48.0 kHz
  42. Frame rate                               : 1 200.000 FPS (40 SPF)
  43. Compression mode                         : Lossless
  44. Stream size                              : 5.32 GiB (27%)
  45. Title                                    : Big.Hero.6.2014.2160p.BluRay.x264.8bit.SDR.DTS-HD.MA.TrueHD.7.1.Atmos-SWTYBLZ
  46. Language                                 : English
  47. Default                                  : Yes
  48. Forced                                   : No
  49. Number of dynamic objects                : 13
  50. Bed channel count                        : 1 channel
  51. Bed channel configuration                : LFE

  52. Audio #2
  53. ID                                       : 3
  54. Format                                   : DTS XLL
  55. Format/Info                              : Digital Theater Systems
  56. Commercial name                          : DTS-HD Master Audio
  57. Codec ID                                 : A_DTS
  58. Duration                                 : 1 h 41 min
  59. Bit rate mode                            : Variable
  60. Bit rate                                 : 3 829 kb/s
  61. Channel(s)                               : 8 channels
  62. Channel layout                           : C L R LFE Lb Rb Lss Rss
  63. Sampling rate                            : 48.0 kHz
  64. Frame rate                               : 93.750 FPS (512 SPF)
  65. Bit depth                                : 24 bits
  66. Compression mode                         : Lossless
  67. Stream size                              : 2.72 GiB (14%)
  68. Title                                    : Big.Hero.6.2014.2160p.BluRay.x264.8bit.SDR.DTS-HD.MA.TrueHD.7.1.Atmos-SWTYBLZ
  69. Language                                 : English
  70. Default                                  : No
  71. Forced                                   : No

  72. Audio #3
  73. ID                                       : 4
  74. Format                                   : AC-3
  75. Format/Info                              : Audio Coding 3
  76. Commercial name                          : Dolby Digital
  77. Codec ID                                 : A_AC3
  78. Duration                                 : 1 h 41 min
  79. Bit rate mode                            : Constant
  80. Bit rate                                 : 640 kb/s
  81. Channel(s)                               : 6 channels
  82. Channel layout                           : L R C LFE Ls Rs
  83. Sampling rate                            : 48.0 kHz
  84. Frame rate                               : 31.250 FPS (1536 SPF)
  85. Bit depth                                : 16 bits
  86. Compression mode                         : Lossy
  87. Stream size                              : 466 MiB (2%)
  88. Title                                    : Big.Hero.6.2014.2160p.BluRay.x264.8bit.SDR.DTS-HD.MA.TrueHD.7.1.Atmos-SWTYBLZ
  89. Language                                 : English
  90. Service kind                             : Complete Main
  91. Default                                  : No
  92. Forced                                   : No

  93. Text #1
  94. ID                                       : 5
  95. Format                                   : UTF-8
  96. Codec ID                                 : S_TEXT/UTF8
  97. Codec ID/Info                            : UTF-8 Plain Text
  98. Duration                                 : 1 h 39 min
  99. Bit rate                                 : 48 b/s
  100. Count of elements                        : 1320
  101. Stream size                              : 35.2 KiB (0%)
  102. Title                                    : English-SRT
  103. Language                                 : English
  104. Default                                  : Yes
  105. Forced                                   : No

  106. Text #2
  107. ID                                       : 6
  108. Format                                   : PGS
  109. Muxing mode                              : zlib
  110. Codec ID                                 : S_HDMV/PGS
  111. Codec ID/Info                            : Picture based subtitle format used on BDs/HD-DVDs
  112. Duration                                 : 1 h 39 min
  113. Bit rate                                 : 29.3 kb/s
  114. Count of elements                        : 2640
  115. Stream size                              : 20.9 MiB (0%)
  116. Title                                    : English-PGS
  117. Language                                 : English
  118. Default                                  : No
  119. Forced                                   : No

  120. Text #3
  121. ID                                       : 7
  122. Format                                   : PGS
  123. Muxing mode                              : zlib
  124. Codec ID                                 : S_HDMV/PGS
  125. Codec ID/Info                            : Picture based subtitle format used on BDs/HD-DVDs
  126. Duration                                 : 1 h 40 min
  127. Bit rate                                 : 31.1 kb/s
  128. Count of elements                        : 2550
  129. Stream size                              : 22.3 MiB (0%)
  130. Title                                    : French-PGS
  131. Language                                 : French
  132. Default                                  : No
  133. Forced                                   : No

  134. Text #4
  135. ID                                       : 8
  136. Format                                   : PGS
  137. Muxing mode                              : zlib
  138. Codec ID                                 : S_HDMV/PGS
  139. Codec ID/Info                            : Picture based subtitle format used on BDs/HD-DVDs
  140. Duration                                 : 1 h 40 min
  141. Bit rate                                 : 28.2 kb/s
  142. Count of elements                        : 2472
  143. Stream size                              : 20.2 MiB (0%)
  144. Title                                    : Spanish-PGS
  145. Language                                 : Spanish
  146. Default                                  : No
  147. Forced                                   : No

  148. Menu
  149. 00:00:00.000                             : en:Chapter 01
  150. 00:07:15.476                             : en:Chapter 02
  151. 00:14:37.626                             : en:Chapter 03
  152. 00:21:48.974                             : en:Chapter 04
  153. 00:24:32.679                             : en:Chapter 05
  154. 00:29:34.522                             : en:Chapter 06
  155. 00:36:57.798                             : en:Chapter 07
  156. 00:44:17.905                             : en:Chapter 08
  157. 00:50:48.545                             : en:Chapter 09
  158. 00:54:32.811                             : en:Chapter 10
  159. 01:00:43.931                             : en:Chapter 11
  160. 01:07:12.403                             : en:Chapter 12
  161. 01:11:54.059                             : en:Chapter 13
  162. 01:16:26.331                             : en:Chapter 14
  163. 01:24:43.953                             : en:Chapter 15
  164. 01:31:52.507                             : en:Chapter 16
復制代碼









本帖隱藏的下載地址需要VIP會員才可瀏覽,您需要升級才可瀏覽,點擊這里升級VIP
分享到:  QQ好友和群QQ好友和群
收藏收藏
VIP會員免費任意下載本站所有資源!---點擊開通
回復

使用道具 舉報

懶得打字嘛,點擊右側快捷回復 【右側內容,后臺自定義】
您需要登錄后才可以回帖 登錄 | 立即注冊

本版積分規則

QQ|Archiver|手機版|小黑屋| 中國高清網 |網站地圖

GMT+8, 2019-12-9 11:00 , Processed in 0.168577 second(s), 36 queries .

Powered by HDchina X3.4

Copyright 2017-2019©HDchina.All right reserved

返回頂部 聯系我們
胜负彩19080期