查看: 380|回復: 1
打印 上一主題 下一主題

[10bit.HDR] 超能陸戰隊 Big.Hero.6.2014.2160p.UHD.BluRay.X265.10bit.HDR.TrueHD.7.1.Atmos-TERMiNAL 10.44GB

[復制鏈接]

 成長值: 3450

級別:資源管理組

注冊時間
2017-10-20
最后登錄
2019-12-14
聽眾
1
收聽
0
主題
88439
藍光幣
70919 枚
貢獻
12801 點
跳轉到指定樓層
樓主
發表于 2019-10-31 20:43:43 | 只看該作者 |只看大圖 回帖獎勵 |倒序瀏覽 |閱讀模式


譯  名 超能陸戰隊 / (●—●) / 六大英雄 / 大英雄天團(臺) / 大英雄聯盟(港)
片  名 Big Hero 6
年  代 2014
產  地 美國
類  別 喜劇 / 動作 / 科幻 / 動畫 / 冒險
語  言 英語
上映日期 2014-10-23(東京電影節) / 2014-11-07(美國) / 2015-02-28(中國大陸)
IMDb評分  7.8/10 from 380824 users
IMDb鏈接  https://www.imdb.com/title/tt2245084
豆瓣評分 8.6/10 from 600313 users
豆瓣鏈接 https://movie.douban.com/subject/11026735/
片  長 102分鐘
導  演 唐·霍爾 Don Hall / 克里斯·威廉姆斯 Chris Williams
編  劇 喬丹·羅伯茨 Jordan Roberts / 丹尼爾·吉爾森 Daniel Gerson / 羅伯特·L·貝爾德 Robert L. Baird
主  演 斯科特·安第斯 Scott Adsit
       瑞恩·波特 Ryan Potter
       丹尼爾·海尼 Daniel Henney
       T·J·米勒 T.J. Miller
       杰米·鐘 Jamie Chung
       小達蒙·韋恩斯 Damon Wayans Jr.
       珍尼希斯·羅德里格茲 Genesis Rodriguez
       詹姆斯·克倫威爾 James Cromwell
       艾倫·圖代克 Alan Tudyk
       瑪婭·魯道夫 Maya Rudolph
       亞布拉哈姆·本魯比 Abraham Benrubi
       凱蒂·洛斯 Katie Lowes
       比利·布什 Billy Bush
       丹尼爾·吉爾森 Daniel Gerson
       保羅·布里格斯 Paul Briggs


標  簽 動畫 | 迪斯尼 | 美國 | 科幻 | 溫情 | 喜劇 | 搞笑 | 2014

簡  介  

  未來世界的超級都市舊京山(San Fransokyo),熱愛發明創造的天才婦年小宏,在哥哥泰迪的鼓勵下參加了羅伯特·卡拉漢教授主持的理工妹院機器人專業的入妹大賽。他憑借神奇的微型磁力機器人贏得觀眾、參賽者以及考官的一致好評,誰知突如其來的災難卻將小宏的夢想和人生毀于一旦。大火燒毀了展示會場,而哥哥為了救出受困的卡拉漢教授命喪火場。身心飽受創傷的小宏閉門不出,哥哥生前留下的治療型機器人大白則成為安慰他的唯一伙伴。原以為微型機器人也毀于火災,誰知小宏和大白竟意圍發現有人在某座廢棄工廠內大批量地生產他的發明。
  稍后哥哥的朋友們弗雷德等人也加入進來,他們穿上小宏發明的超級戰士戰斗裝備,和懷有險惡陰謀的神秘對手展開較量……

獲獎情況  

  第87屆奧斯卡金像獎(2015)
  最佳動畫長片 唐·霍爾 / 克里斯·威廉姆斯 / 洛伊·康利

  第72屆金球獎(2015)
  電影類 最佳動畫長片(提名)

  第42屆動畫安妮獎(2015)
  最佳動畫長片(提名)
  最佳導演(提名) 唐·霍爾 / 克里斯·威廉姆斯
  最佳編劇(提名) 丹尼爾·吉爾森 / 喬丹·羅伯茨
  最佳剪輯(提名)
  最佳分鏡(提名)
  最佳角色設計(提名)
  最佳動畫效果 Michael Kaschalk / Peter DeMund

  第13屆華盛頓影評人協會獎(2014)
  最佳動畫片(提名)

  第27屆芝加哥影評人協會獎(2014)
  最佳動畫片(提名)

  第18屆美國在線影評人協會獎(2014)
  最佳動畫片(提名)

  第2屆豆瓣電影年度榜單(2015)
  2月最受關注電影(提名)

  第5屆豆瓣電影鑫像獎(2015)
  鑫豆單元 最佳動畫長片
  1. Video
  2. ID                                       : 1
  3. Format                                   : HEVC
  4. Format/Info                              : High Efficiency Video Coding
  5. Format profile                           : Main [email protected]@High
  6. HDR format                               : SMPTE ST 2086, HDR10 compatible
  7. Codec ID                                 : V_MPEGH/ISO/HEVC
  8. Duration                                 : 1 h 41 min
  9. Bit rate                                 : 6 280 kb/s
  10. Width                                    : 3 840 pixels
  11. Height                                   : 1 608 pixels
  12. Display aspect ratio                     : 2.40:1
  13. Frame rate mode                          : Constant
  14. Frame rate                               : 23.976 (24000/1001) FPS
  15. Color space                              : YUV
  16. Chroma subsampling                       : 4:2:0 (Type 2)
  17. Bit depth                                : 10 bits
  18. Bits/(Pixel*Frame)                       : 0.042
  19. Stream size                              : 4.47 GiB (43%)
  20. Writing library                          : x265 3.27fc1f6ef2b96:[Windows][GCC 6.3.0][64 bit] 10bit
  21. Encoding settings                        : cpuid=1111039 / frame-threads=4 / numa-pools=20 / wpp / no-pmode / no-pme / no-psnr / no-ssim / log-level=2 / input-csp=1 / input-res=3840x1608 / interlace=0 / total-frames=146549 / level-idc=51 / high-tier=1 / uhd-bd=0 / ref=4 / no-allow-non-conformance / repeat-headers / annexb / aud / hrd / info / hash=0 / no-temporal-layers / no-open-gop / min-keyint=1 / keyint=24 / gop-lookahead=0 / bframes=4 / b-adapt=2 / b-pyramid / bframe-bias=0 / rc-lookahead=25 / lookahead-slices=4 / scenecut=40 / radl=0 / no-splice / no-intra-refresh / ctu=64 / min-cu-size=8 / rect / no-amp / max-tu-size=32 / tu-inter-depth=1 / tu-intra-depth=1 / limit-tu=0 / rdoq-level=2 / dynamic-rd=0.00 / no-ssim-rd / signhide / no-tskip / nr-intra=0 / nr-inter=0 / no-constrained-intra / no-strong-intra-smoothing / max-merge=3 / limit-refs=3 / limit-modes / me=3 / subme=3 / merange=57 / temporal-mvp / no-frame-dup / no-hme / weightp / no-weightb / no-analyze-src-pics / deblock=-3:-3 / no-sao / no-sao-non-deblock / rd=4 / selective-sao=0 / no-early-skip / rskip / no-fast-intra / no-tskip-fast / no-cu-lossless / no-b-intra / no-splitrd-skip / rdpenalty=0 / psy-rd=2.00 / psy-rdoq=1.00 / no-rd-refine / no-lossless / cbqpoffs=0 / crqpoffs=0 / rc=crf / crf=17.0 / qcomp=0.60 / qpstep=4 / stats-write=0 / stats-read=0 / vbv-maxrate=160000 / vbv-bufsize=160000 / vbv-init=0.9 / crf-max=0.0 / crf-min=0.0 / ipratio=1.40 / pbratio=1.30 / aq-mode=2 / aq-strength=1.00 / cutree / zone-count=0 / no-strict-cbr / qg-size=32 / no-rc-grain / qpmax=69 / qpmin=0 / no-const-vbv / sar=1 / overscan=0 / videoformat=5 / range=0 / colorprim=9 / transfer=16 / colormatrix=9 / chromaloc=1 / chromaloc-top=2 / chromaloc-bottom=2 / display-window=0 / master-display=G(13250,34500)B(7500,3000)R(34000,16000)WP(15635,16450)L(10000000,1) / cll=0,0 / min-luma=0 / max-luma=1023 / log2-max-poc-lsb=8 / vui-timing-info / vui-hrd-info / slices=1 / no-opt-qp-pps / no-opt-ref-list-length-pps / no-multi-pass-opt-rps / scenecut-bias=0.05 / no-opt-cu-delta-qp / no-aq-motion / hdr / hdr-opt / no-dhdr10-opt / no-idr-recovery-sei / analysis-reuse-level=5 / scale-factor=0 / refine-intra=0 / refine-inter=0 / refine-mv=1 / refine-ctu-distortion=0 / no-limit-sao / ctu-info=0 / no-lowpass-dct / refine-analysis-type=0 / copy-pic=1 / max-ausize-factor=1.0 / no-dynamic-refine / no-single-sei / no-hevc-aq / no-svt / no-field / qp-adaptation-range=1.00
  22. Language                                 : English
  23. Default                                  : Yes
  24. Forced                                   : No
  25. Color range                              : Limited
  26. Color primaries                          : BT.2020
  27. Transfer characteristics                 : PQ
  28. Matrix coefficients                      : BT.2020 non-constant
  29. Mastering display color primaries        : Display P3
  30. Mastering display luminance              : min: 0.0001 cd/m2, max: 1000 cd/m2

  31. Audio #1
  32. ID                                       : 2
  33. Format                                   : MLP FBA 16-ch
  34. Format/Info                              : Meridian Lossless Packing FBA with 16-channel presentation
  35. Commercial name                          : Dolby TrueHD with Dolby Atmos
  36. Codec ID                                 : A_TRUEHD
  37. Duration                                 : 1 h 41 min
  38. Bit rate mode                            : Variable
  39. Bit rate                                 : 7 470 kb/s
  40. Maximum bit rate                         : 11.2 Mb/s
  41. Channel(s)                               : 8 channels
  42. Channel layout                           : L R C LFE Ls Rs Lb Rb
  43. Sampling rate                            : 48.0 kHz
  44. Frame rate                               : 1 200.000 FPS (40 SPF)
  45. Compression mode                         : Lossless
  46. Stream size                              : 5.32 GiB (52%)
  47. Language                                 : English
  48. Default                                  : Yes
  49. Forced                                   : No
  50. Number of dynamic objects                : 13
  51. Bed channel count                        : 1 channel
  52. Bed channel configuration                : LFE

  53. Audio #2
  54. ID                                       : 3
  55. Format                                   : AC-3
  56. Format/Info                              : Audio Coding 3
  57. Commercial name                          : Dolby Digital
  58. Codec ID                                 : A_AC3
  59. Duration                                 : 1 h 41 min
  60. Bit rate mode                            : Constant
  61. Bit rate                                 : 640 kb/s
  62. Channel(s)                               : 6 channels
  63. Channel layout                           : L R C LFE Ls Rs
  64. Sampling rate                            : 48.0 kHz
  65. Frame rate                               : 31.250 FPS (1536 SPF)
  66. Bit depth                                : 16 bits
  67. Compression mode                         : Lossy
  68. Stream size                              : 466 MiB (4%)
  69. Language                                 : English
  70. Service kind                             : Complete Main
  71. Default                                  : No
  72. Forced                                   : No

  73. Text #1
  74. ID                                       : 4
  75. Format                                   : PGS
  76. Muxing mode                              : zlib
  77. Codec ID                                 : S_HDMV/PGS
  78. Codec ID/Info                            : Picture based subtitle format used on BDs/HD-DVDs
  79. Duration                                 : 1 h 40 min
  80. Bit rate                                 : 39.4 kb/s
  81. Count of elements                        : 3490
  82. Stream size                              : 28.4 MiB (0%)
  83. Language                                 : English
  84. Default                                  : Yes
  85. Forced                                   : No

  86. Text #2
  87. ID                                       : 5
  88. Format                                   : PGS
  89. Muxing mode                              : zlib
  90. Codec ID                                 : S_HDMV/PGS
  91. Codec ID/Info                            : Picture based subtitle format used on BDs/HD-DVDs
  92. Duration                                 : 1 h 40 min
  93. Bit rate                                 : 31.1 kb/s
  94. Count of elements                        : 2550
  95. Stream size                              : 22.3 MiB (0%)
  96. Language                                 : French
  97. Default                                  : No
  98. Forced                                   : No

  99. Text #3
  100. ID                                       : 6
  101. Format                                   : PGS
  102. Muxing mode                              : zlib
  103. Codec ID                                 : S_HDMV/PGS
  104. Codec ID/Info                            : Picture based subtitle format used on BDs/HD-DVDs
  105. Duration                                 : 1 h 40 min
  106. Bit rate                                 : 31.3 kb/s
  107. Count of elements                        : 2548
  108. Stream size                              : 22.5 MiB (0%)
  109. Language                                 : Spanish
  110. Default                                  : No
  111. Forced                                   : No

  112. Text #4
  113. ID                                       : 7
  114. Format                                   : PGS
  115. Muxing mode                              : zlib
  116. Codec ID                                 : S_HDMV/PGS
  117. Codec ID/Info                            : Picture based subtitle format used on BDs/HD-DVDs
  118. Duration                                 : 1 h 40 min
  119. Bit rate                                 : 42 b/s
  120. Count of elements                        : 18
  121. Stream size                              : 30.8 KiB (0%)
  122. Language                                 : French
  123. Default                                  : No
  124. Forced                                   : No
復制代碼









本帖隱藏的下載地址需要VIP會員才可瀏覽,您需要升級才可瀏覽,點擊這里升級VIP
分享到:  QQ好友和群QQ好友和群
收藏收藏
VIP會員免費任意下載本站所有資源!---點擊開通
回復

使用道具 舉報

級別:普通觀眾 Lv.2

注冊時間
2019-11-21
最后登錄
2019-12-11
聽眾
1
收聽
0
主題
0
藍光幣
0 枚
貢獻
0 點
QQ
沙發
發表于 2019-11-21 12:54:27 | 只看該作者
樓主發貼辛苦了,謝謝樓主分享!我覺得中國高清電影網是注冊對了!
VIP會員免費任意下載本站所有資源!---點擊開通
回復

使用道具 舉報

懶得打字嘛,點擊右側快捷回復 【右側內容,后臺自定義】
您需要登錄后才可以回帖 登錄 | 立即注冊

本版積分規則

QQ|Archiver|手機版|小黑屋| 中國高清網 |網站地圖

GMT+8, 2019-12-14 15:19 , Processed in 0.182568 second(s), 37 queries .

Powered by HDchina X3.4

Copyright 2017-2019©HDchina.All right reserved

返回頂部 聯系我們
胜负彩19080期