查看: 132|回復: 3
打印 上一主題 下一主題

[恐怖片] 地獄鐵匠 Errementari.2017.1080p.BluRay.x264-USURY 6.57GB

[復制鏈接]

 成長值: 3400

級別:資源管理組

注冊時間
2017-10-20
最后登錄
2019-12-9
聽眾
1
收聽
0
主題
88290
藍光幣
69434 枚
貢獻
12652 點
跳轉到指定樓層
樓主
發表于 2019-11-1 10:48:55 | 只看該作者 |只看大圖 回帖獎勵 |倒序瀏覽 |閱讀模式


譯  名 地獄鐵匠 / Errementari: The Blacksmith and the Devil
片  名 Errementari
年  代 2017
產  地 西班牙 / 法國
類  別 恐怖 / 奇幻
語  言 巴斯克語
上映日期 2017-10-12(錫切斯電影節)
IMDb評分  6.4/10 from 7003 users
IMDb鏈接  https://www.imdb.com/title/tt5592878
豆瓣評分 6.2/10 from 1123 users
豆瓣鏈接 https://movie.douban.com/subject/27109219/
片  長 98分鐘
導  演 保羅·烏爾基喬·阿利喬 Paul Urkijo Alijo
編  劇 保羅·烏爾基喬·阿利喬 Paul Urkijo Alijo / Asier Guerricachevarría
主  演 坎迪多·烏蘭加 Kandido Uranga
       烏瑪·布拉卡利亞 Uma Bracaglia
       恩尼科·薩伽多伊 Eneko Sagardoy
       喬斯因·本格特伊 Joxean Bengoetxea
       Gotzon Sánchez
       艾托·烏爾塞萊 Aitor Urcelai
       Zigor Bilbao
       Almudena Cid
       Ander Pardo
       弗蘭克·格里什 Frank Gerrish


標  簽 奇幻 | 西班牙 | 惡魔 | 魔幻 | 恐怖 | 地獄使者 | 神話 | 2017

簡  介  

  19世紀中葉,西班牙巴斯克地區一個偏遠所在。衣著考究的阿爾弗雷德·奧提茲(Ramón Agirre 飾)來到了當地一個小鎮,他自稱為省政府工作,此行的目的是找當第一個圍號“鐵錘”的鐵匠帕爾西·弗朗西斯科(坎迪多·烏蘭加 Kandido Uranga 飾)了解事情。從當地 人口中得知,鐵錘脾氣暴躁,不好相處,他所在的鐵匠鋪已成廢墟,傳言中這個鐵匠更被人們視作魔鬼。未過多久,小鎮的男人弄清了奧提茲的真實意圖,原來數年前的西班牙資產階級革命后,傳言卡洛斯的黃金就隱藏在鐵匠鋪中。利欲熏心的鎮民和奧提茲前往鐵匠鋪,卻不知這里正是地獄魔鬼出沒的恐怖所在……
  本片根據西班牙民間故事改編。

獲獎情況  

  第33屆西班牙戈雅獎(2019)
  最佳特效(提名)
  1. Video
  2. ID                                       : 1
  3. Format                                   : AVC
  4. Format/Info                              : Advanced Video Codec
  5. Format profile                           : [email protected]
  6. Format settings                          : CABAC / 4 Ref Frames
  7. Format settings, CABAC                   : Yes
  8. Format settings, Reference frames        : 4 frames
  9. Codec ID                                 : V_MPEG4/ISO/AVC
  10. Duration                                 : 1 h 38 min
  11. Bit rate                                 : 8 004 kb/s
  12. Width                                    : 1 920 pixels
  13. Height                                   : 1 016 pixels
  14. Display aspect ratio                     : 1.890
  15. Frame rate mode                          : Constant
  16. Frame rate                               : 24.000 FPS
  17. Color space                              : YUV
  18. Chroma subsampling                       : 4:2:0
  19. Bit depth                                : 8 bits
  20. Scan type                                : Progressive
  21. Bits/(Pixel*Frame)                       : 0.171
  22. Stream size                              : 5.52 GiB (84%)
  23. Writing library                          : x264 core 157 r2969 d4099dd
  24. Encoding settings                        : cabac=1 / ref=4 / deblock=1:-3:-3 / analyse=0x3:0x133 / me=umh / subme=9 / psy=1 / psy_rd=1.00:0.00 / mixed_ref=1 / me_range=16 / chroma_me=1 / trellis=2 / 8x8dct=1 / cqm=0 / deadzone=21,11 / fast_pskip=0 / chroma_qp_offset=-2 / threads=18 / lookahead_threads=1 / sliced_threads=0 / nr=0 / decimate=1 / interlaced=0 / bluray_compat=0 / constrained_intra=0 / bframes=3 / b_pyramid=2 / b_adapt=1 / b_bias=0 / direct=3 / weightb=1 / open_gop=0 / weightp=2 / keyint=240 / keyint_min=24 / scenecut=40 / intra_refresh=0 / rc_lookahead=50 / rc=2pass / mbtree=1 / bitrate=8004 / ratetol=1.0 / qcomp=0.60 / qpmin=0 / qpmax=69 / qpstep=4 / cplxblur=20.0 / qblur=0.5 / ip_ratio=1.40 / aq=1:1.00
  25. Language                                 : English
  26. Default                                  : Yes
  27. Forced                                   : No

  28. Audio
  29. ID                                       : 2
  30. Format                                   : DTS
  31. Format/Info                              : Digital Theater Systems
  32. Codec ID                                 : A_DTS
  33. Duration                                 : 1 h 38 min
  34. Bit rate mode                            : Constant
  35. Bit rate                                 : 1 509 kb/s
  36. Channel(s)                               : 6 channels
  37. Channel layout                           : C L R Ls Rs LFE
  38. Sampling rate                            : 48.0 kHz
  39. Frame rate                               : 93.750 FPS (512 SPF)
  40. Bit depth                                : 24 bits
  41. Compression mode                         : Lossy
  42. Stream size                              : 1.04 GiB (16%)
  43. Default                                  : Yes
  44. Forced                                   : No

  45. Text
  46. ID                                       : 3
  47. Format                                   : UTF-8
  48. Codec ID                                 : S_TEXT/UTF8
  49. Codec ID/Info                            : UTF-8 Plain Text
  50. Duration                                 : 1 h 38 min
  51. Bit rate                                 : 31 b/s
  52. Count of elements                        : 877
  53. Stream size                              : 22.6 KiB (0%)
  54. Title                                    : English
  55. Language                                 : English
  56. Default                                  : Yes
  57. Forced                                   : Yes

  58. Menu
  59. 00:00:00.000                             : en:00:00:00.000
  60. 00:12:13.458                             : en:00:12:13.458
  61. 00:23:37.833                             : en:00:23:37.833
  62. 00:32:11.333                             : en:00:32:11.333
  63. 00:45:11.458                             : en:00:45:11.458
  64. 00:56:14.458                             : en:00:56:14.458
  65. 01:06:10.667                             : en:01:06:10.667
  66. 01:15:10.417                             : en:01:15:10.417
復制代碼









分享到:  QQ好友和群QQ好友和群
收藏收藏
VIP會員免費任意下載本站所有資源!---點擊開通
回復

使用道具 舉報

級別:群眾演員 Lv.3

注冊時間
2019-10-27
最后登錄
2019-12-8
聽眾
1
收聽
0
主題
0
藍光幣
72 枚
貢獻
0 點
沙發
發表于 2019-11-3 00:26:43 | 只看該作者
感謝樓主了,下載表示感謝!
VIP會員免費任意下載本站所有資源!---點擊開通
回復

使用道具 舉報

級別:群眾演員 Lv.3

注冊時間
2019-10-27
最后登錄
2019-12-8
聽眾
1
收聽
0
主題
0
藍光幣
72 枚
貢獻
0 點
受到警告 板凳
發表于 2019-11-3 00:46:55 | 只看該作者
樓主發貼辛苦了,謝謝樓主分享!我覺得中國高清電影網是注冊對了!
VIP會員免費任意下載本站所有資源!---點擊開通
回復

使用道具 舉報

級別:群眾演員 Lv.3

注冊時間
2019-11-4
最后登錄
2019-12-8
聽眾
1
收聽
0
主題
0
藍光幣
31 枚
貢獻
0 點
地板
發表于 2019-11-4 06:42:49 | 只看該作者
樓主發貼辛苦了,謝謝樓主分享!我覺得中國高清電影網是注冊對了!
VIP會員免費任意下載本站所有資源!---點擊開通
回復

使用道具 舉報

懶得打字嘛,點擊右側快捷回復 【右側內容,后臺自定義】
您需要登錄后才可以回帖 登錄 | 立即注冊

本版積分規則

QQ|Archiver|手機版|小黑屋| 中國高清網 |網站地圖

GMT+8, 2019-12-9 10:48 , Processed in 0.177887 second(s), 36 queries .

Powered by HDchina X3.4

Copyright 2017-2019©HDchina.All right reserved

返回頂部 聯系我們
胜负彩19080期