查看: 178|回復: 0
打印 上一主題 下一主題

[10bit.HDR] 在黑暗中講述的恐怖故事/在黑暗中說的鬼故事 Scary.Stories.to.Tell.in.the.Dark.2019.2160p.UHD.BluRay.X265.10bit.HDR.TrueHD.5.1-WhiteRhino 7.99GB

[復制鏈接]

 成長值: 3400

級別:資源管理組

注冊時間
2017-10-20
最后登錄
2019-12-9
聽眾
1
收聽
0
主題
88290
藍光幣
69434 枚
貢獻
12652 點
跳轉到指定樓層
樓主
發表于 2019-11-2 10:34:20 | 只看該作者 |只看大圖 回帖獎勵 |倒序瀏覽 |閱讀模式


譯  名 在黑暗中講述的恐怖故事 / 在黑暗中說的鬼故事(臺) / 講鬼故(港) / 黑暗恐怖故事
片  名 Scary Stories to Tell in the Dark
年  代 2019
產  地 美國
類  別 恐怖
語  言 英語
上映日期 2019-08-09(美國)
IMDb評分  6.4/10 from 20523 users
IMDb鏈接  https://www.imdb.com/title/tt3387520
豆瓣評分 6.1/10 from 2971 users
豆瓣鏈接 https://movie.douban.com/subject/26278747/
片  長 108分鐘
導  演 安德烈·艾弗道夫 André ?vredal
編  劇 約翰·奧古斯特 John August / 馬庫斯·鄧斯坦 Marcus Dunstan / 丹·哈格曼 Dan Hageman / 凱文·哈格曼 Kevin Hageman / 帕特里克·梅爾頓 Patrick Melton / 艾爾文·史瓦茲 Alvin Schwartz / 吉爾莫·德爾·托羅 Guillermo del Toro
主  演 佐伊·瑪格麗特·科萊蒂 Zoe Margaret Colletti
       邁克爾·加爾扎 Michael Garza
       加布里埃爾·拉什 Gabriel Rush
       吉爾·貝羅斯 Gil Bellows
       哈維爾·博泰特 Javier Botet
       迪恩·諾里斯 Dean Norris
       洛萊妮·圖拿特 Lorraine Toussaint
       奧斯汀·艾布拉姆斯 Austin Abrams
       馬克·斯達格 Mark Steger
       斯蒂芬妮·貝爾丁 Stephanie Belding
       簡·莫凡特 Jane Moffat


標  簽 恐怖 | 驚悚 | 美國 | 2019 | 靈異 | 改編 | 在黑暗中講述的恐怖故事 | 科幻

簡  介  

  安德烈·艾弗道夫([無名女尸])接替吉爾莫·德爾·托羅執導[在黑暗中講述的恐怖故事],丹·哈格曼、凱文·哈格曼操刀劇本,CBS負責影片制作。而托羅將擔任制片人。該片根據艾文·施瓦茲的同名小說改編,故事圍繞一群年輕人展開,小鎮頻發死亡事件,他們必須找出背后的秘密。本片明年夏天開拍。
  1. Video
  2. ID                                       : 1
  3. Format                                   : HEVC
  4. Format/Info                              : High Efficiency Video Coding
  5. Format profile                           : Main [email protected]@High
  6. HDR format                               : SMPTE ST 2086, HDR10 compatible
  7. Codec ID                                 : V_MPEGH/ISO/HEVC
  8. Duration                                 : 1 h 47 min
  9. Bit rate                                 : 7 985 kb/s
  10. Width                                    : 3 840 pixels
  11. Height                                   : 1 612 pixels
  12. Display aspect ratio                     : 2.40:1
  13. Frame rate mode                          : Constant
  14. Frame rate                               : 23.976 (24000/1001) FPS
  15. Color space                              : YUV
  16. Chroma subsampling                       : 4:2:0 (Type 2)
  17. Bit depth                                : 10 bits
  18. Bits/(Pixel*Frame)                       : 0.054
  19. Stream size                              : 6.02 GiB (76%)
  20. Writing library                          : x265 3.2971180b100f8:[Windows][GCC 9.2.1][64 bit] 10bit
  21. Encoding settings                        : cpuid=1111039 / frame-threads=4 / numa-pools=20 / wpp / no-pmode / no-pme / no-psnr / no-ssim / log-level=2 / input-csp=1 / input-res=3840x1612 / interlace=0 / total-frames=155276 / level-idc=51 / high-tier=1 / uhd-bd=0 / ref=4 / no-allow-non-conformance / repeat-headers / annexb / aud / hrd / info / hash=0 / no-temporal-layers / no-open-gop / min-keyint=1 / keyint=24 / gop-lookahead=0 / bframes=4 / b-adapt=2 / b-pyramid / bframe-bias=0 / rc-lookahead=25 / lookahead-slices=4 / scenecut=40 / radl=0 / no-splice / no-intra-refresh / ctu=64 / min-cu-size=8 / rect / no-amp / max-tu-size=32 / tu-inter-depth=1 / tu-intra-depth=1 / limit-tu=0 / rdoq-level=2 / dynamic-rd=0.00 / no-ssim-rd / signhide / no-tskip / nr-intra=0 / nr-inter=0 / no-constrained-intra / no-strong-intra-smoothing / max-merge=3 / limit-refs=3 / limit-modes / me=3 / subme=3 / merange=57 / temporal-mvp / no-frame-dup / no-hme / weightp / no-weightb / no-analyze-src-pics / deblock=-3:-3 / no-sao / no-sao-non-deblock / rd=4 / selective-sao=0 / no-early-skip / rskip / no-fast-intra / no-tskip-fast / no-cu-lossless / no-b-intra / no-splitrd-skip / rdpenalty=0 / psy-rd=2.00 / psy-rdoq=1.00 / no-rd-refine / no-lossless / cbqpoffs=0 / crqpoffs=0 / rc=crf / crf=17.0 / qcomp=0.60 / qpstep=4 / stats-write=0 / stats-read=0 / vbv-maxrate=160000 / vbv-bufsize=160000 / vbv-init=0.9 / crf-max=0.0 / crf-min=0.0 / ipratio=1.40 / pbratio=1.30 / aq-mode=2 / aq-strength=1.00 / cutree / zone-count=0 / no-strict-cbr / qg-size=32 / no-rc-grain / qpmax=69 / qpmin=0 / no-const-vbv / sar=1 / overscan=0 / videoformat=5 / range=0 / colorprim=9 / transfer=16 / colormatrix=9 / chromaloc=1 / chromaloc-top=2 / chromaloc-bottom=2 / display-window=0 / master-display=G(13250,34500)B(7500,3000)R(34000,16000)WP(15635,16450)L(10000000,0) / cll=1000,235 / min-luma=0 / max-luma=1023 / log2-max-poc-lsb=8 / vui-timing-info / vui-hrd-info / slices=1 / no-opt-qp-pps / no-opt-ref-list-length-pps / no-multi-pass-opt-rps / scenecut-bias=0.05 / no-opt-cu-delta-qp / no-aq-motion / hdr / hdr-opt / no-dhdr10-opt / no-idr-recovery-sei / analysis-reuse-level=5 / scale-factor=0 / refine-intra=0 / refine-inter=0 / refine-mv=1 / refine-ctu-distortion=0 / no-limit-sao / ctu-info=0 / no-lowpass-dct / refine-analysis-type=0 / copy-pic=1 / max-ausize-factor=1.0 / no-dynamic-refine / no-single-sei / no-hevc-aq / no-svt / no-field / qp-adaptation-range=1.00
  22. Default                                  : Yes
  23. Forced                                   : No
  24. Color range                              : Limited
  25. Color primaries                          : BT.2020
  26. Transfer characteristics                 : PQ
  27. Matrix coefficients                      : BT.2020 non-constant
  28. Mastering display color primaries        : Display P3
  29. Mastering display luminance              : min: 0.0000 cd/m2, max: 1000 cd/m2
  30. Maximum Content Light Level              : 1000 cd/m2
  31. Maximum Frame-Average Light Level        : 235 cd/m2

  32. Audio #1
  33. ID                                       : 2
  34. Format                                   : MLP FBA
  35. Format/Info                              : Meridian Lossless Packing FBA
  36. Commercial name                          : Dolby TrueHD
  37. Codec ID                                 : A_TRUEHD
  38. Duration                                 : 1 h 47 min
  39. Bit rate mode                            : Variable
  40. Bit rate                                 : 1 714 kb/s
  41. Maximum bit rate                         : 3 150 kb/s
  42. Channel(s)                               : 6 channels
  43. Channel layout                           : L R C LFE Ls Rs
  44. Sampling rate                            : 48.0 kHz
  45. Frame rate                               : 1 200.000 FPS (40 SPF)
  46. Compression mode                         : Lossless
  47. Stream size                              : 1.29 GiB (16%)
  48. Language                                 : English
  49. Default                                  : Yes
  50. Forced                                   : No

  51. Audio #2
  52. ID                                       : 3
  53. Format                                   : AC-3
  54. Format/Info                              : Audio Coding 3
  55. Commercial name                          : Dolby Digital
  56. Codec ID                                 : A_AC3
  57. Duration                                 : 1 h 47 min
  58. Bit rate mode                            : Constant
  59. Bit rate                                 : 640 kb/s
  60. Channel(s)                               : 6 channels
  61. Channel layout                           : L R C LFE Ls Rs
  62. Sampling rate                            : 48.0 kHz
  63. Frame rate                               : 31.250 FPS (1536 SPF)
  64. Bit depth                                : 16 bits
  65. Compression mode                         : Lossy
  66. Stream size                              : 494 MiB (6%)
  67. Language                                 : English
  68. Service kind                             : Complete Main
  69. Default                                  : No
  70. Forced                                   : No

  71. Text #1
  72. ID                                       : 4
  73. Format                                   : PGS
  74. Muxing mode                              : zlib
  75. Codec ID                                 : S_HDMV/PGS
  76. Codec ID/Info                            : Picture based subtitle format used on BDs/HD-DVDs
  77. Duration                                 : 1 h 43 min
  78. Bit rate                                 : 30.3 kb/s
  79. Count of elements                        : 2304
  80. Stream size                              : 22.5 MiB (0%)
  81. Language                                 : English
  82. Default                                  : No
  83. Forced                                   : No

  84. Text #2
  85. ID                                       : 5
  86. Format                                   : PGS
  87. Muxing mode                              : zlib
  88. Codec ID                                 : S_HDMV/PGS
  89. Codec ID/Info                            : Picture based subtitle format used on BDs/HD-DVDs
  90. Duration                                 : 1 h 43 min
  91. Bit rate                                 : 36.0 kb/s
  92. Count of elements                        : 2630
  93. Stream size                              : 26.8 MiB (0%)
  94. Language                                 : English
  95. Default                                  : No
  96. Forced                                   : No

  97. Text #3
  98. ID                                       : 6
  99. Format                                   : PGS
  100. Muxing mode                              : zlib
  101. Codec ID                                 : S_HDMV/PGS
  102. Codec ID/Info                            : Picture based subtitle format used on BDs/HD-DVDs
  103. Duration                                 : 1 h 39 min
  104. Bit rate                                 : 28.2 kb/s
  105. Count of elements                        : 2194
  106. Stream size                              : 20.1 MiB (0%)
  107. Language                                 : Spanish
  108. Default                                  : No
  109. Forced                                   : No

  110. Menu
  111. 00:00:00.000                             : en:Chapter 01
  112. 00:05:44.386                             : en:Chapter 02
  113. 00:13:23.052                             : en:Chapter 03
  114. 00:18:52.131                             : en:Chapter 04
  115. 00:25:34.742                             : en:Chapter 05
  116. 00:28:31.168                             : en:Chapter 06
  117. 00:36:17.300                             : en:Chapter 07
  118. 00:47:06.282                             : en:Chapter 08
  119. 00:54:17.171                             : en:Chapter 09
  120. 00:58:36.304                             : en:Chapter 10
  121. 01:02:36.378                             : en:Chapter 11
  122. 01:11:04.677                             : en:Chapter 12
  123. 01:17:59.425                             : en:Chapter 13
  124. 01:24:33.902                             : en:Chapter 14
  125. 01:29:53.179                             : en:Chapter 15
  126. 01:38:30.279                             : en:Chapter 16
復制代碼









本帖隱藏的下載地址需要VIP會員才可瀏覽,您需要升級才可瀏覽,點擊這里升級VIP
分享到:  QQ好友和群QQ好友和群
收藏收藏
VIP會員免費任意下載本站所有資源!---點擊開通
回復

使用道具 舉報

懶得打字嘛,點擊右側快捷回復 【右側內容,后臺自定義】
您需要登錄后才可以回帖 登錄 | 立即注冊

本版積分規則

QQ|Archiver|手機版|小黑屋| 中國高清網 |網站地圖

GMT+8, 2019-12-9 10:47 , Processed in 0.260293 second(s), 36 queries .

Powered by HDchina X3.4

Copyright 2017-2019©HDchina.All right reserved

返回頂部 聯系我們
胜负彩19080期