查看: 14|回復: 0
打印 上一主題 下一主題

[紀錄片] 羅伯特·梅普勒索普:看看那些照片 Mapplethorpe.Look.at.the.Pictures.2016.1080p.AMZN.WEBRip.DDP5.1.x264-monkee 5.51GB

[復制鏈接]

 成長值: 3400

級別:資源管理組

注冊時間
2017-10-20
最后登錄
2019-12-9
聽眾
1
收聽
0
主題
88290
藍光幣
69434 枚
貢獻
12652 點
跳轉到指定樓層
樓主
發表于 2019-11-2 21:13:29 | 只看該作者 |只看大圖 回帖獎勵 |倒序瀏覽 |閱讀模式


譯  名 羅伯特·梅普勒索普:看看那些照片
片  名 Mapplethorpe: Look at the Pictures
年  代 2016
產  地 美國 / 德國
類  別 紀錄片
語  言 英語
上映日期 2016-03-20(美國)
IMDb評分  7.5/10 from 1133 users
IMDb鏈接  https://www.imdb.com/title/tt5275838
豆瓣評分 8.2/10 from 117 users
豆瓣鏈接 https://movie.douban.com/subject/26681645/
片  長 109分鐘
導  演 Fenton Bailey / Randy Barbato
主  演 黛布拉·哈里 Deborah Harry
       弗蘭·勒博維茨 Fran Lebowitz
       波姬·小絲 Brooke Shields
       Paul Martineau
       羅伯特·梅普爾索普 Robert Mapplethorpe


標  簽 紀錄片 | 攝影 | 羅伯特·梅普勒索普 | 美國 | 同性 | 藝術 | Documentary | Robert_Mapplethorpe

簡  介  

  太多美麗稍縱即逝,在眼前匆匆流走,即使再用力抓緊,還是留不住在掌心。
  攝影師有著讓平凡人恨得牙癢癢的天賦。他們透過鏡頭,咔嚓一聲,世界變成平面,美麗不減。六十年代,有著這樣一個拿著相機的壞孩子,Robert Mapplethorpe是著名詩人Patti Smith的男友,也為Andy Warhol拍下經典的人像照。他將種族、同性戀與禁忌性愛拍下,溫柔的光線襯托著硬倔的肌肉線條,矛盾而美麗。這種衝突的美感,挑戰藝術的底線,震驚社會,震怒國會。也許真的有生不逢時這回事,來到今天,他的成就終於得到,兩大藝術館爭相舉辦以他為題的展覽。
  《黑暗王子:攝慾人生》帶你走進Mapplethorpe的黑白世界,在他從未曝光的生命碎片中,拼湊出他比作品來得更要精彩的人生。

獲獎情況  

  第66屆柏林國際電影節(2016)
  泰迪熊獎 最佳紀錄片(提名) Randy Barbato / Fenton Bailey
  1. Video
  2. ID                                       : 1
  3. Format                                   : AVC
  4. Format/Info                              : Advanced Video Codec
  5. Format profile                           : [email protected]
  6. Format settings                          : CABAC / 4 Ref Frames
  7. Format settings, CABAC                   : Yes
  8. Format settings, Reference frames        : 4 frames
  9. Codec ID                                 : V_MPEG4/ISO/AVC
  10. Duration                                 : 1 h 48 min
  11. Bit rate mode                            : Variable
  12. Bit rate                                 : 6 621 kb/s
  13. Maximum bit rate                         : 15.0 Mb/s
  14. Width                                    : 1 920 pixels
  15. Height                                   : 1 080 pixels
  16. Display aspect ratio                     : 16:9
  17. Frame rate mode                          : Constant
  18. Frame rate                               : 23.976 (24000/1001) FPS
  19. Color space                              : YUV
  20. Chroma subsampling                       : 4:2:0
  21. Bit depth                                : 8 bits
  22. Scan type                                : Progressive
  23. Bits/(Pixel*Frame)                       : 0.133
  24. Stream size                              : 5.03 GiB (91%)
  25. Default                                  : Yes
  26. Forced                                   : No
  27. Color range                              : Limited
  28. Color primaries                          : BT.709
  29. Transfer characteristics                 : BT.709
  30. Matrix coefficients                      : BT.709

  31. Audio
  32. ID                                       : 2
  33. Format                                   : E-AC-3
  34. Format/Info                              : Enhanced AC-3
  35. Commercial name                          : Dolby Digital Plus
  36. Codec ID                                 : A_EAC3
  37. Duration                                 : 1 h 48 min
  38. Bit rate mode                            : Constant
  39. Bit rate                                 : 640 kb/s
  40. Channel(s)                               : 6 channels
  41. Channel layout                           : L R C LFE Ls Rs
  42. Sampling rate                            : 48.0 kHz
  43. Frame rate                               : 31.250 FPS (1536 SPF)
  44. Compression mode                         : Lossy
  45. Stream size                              : 498 MiB (9%)
  46. Language                                 : English
  47. Service kind                             : Complete Main
  48. Default                                  : Yes
  49. Forced                                   : No

  50. Text
  51. ID                                       : 3
  52. Format                                   : UTF-8
  53. Codec ID                                 : S_TEXT/UTF8
  54. Codec ID/Info                            : UTF-8 Plain Text
  55. Duration                                 : 1 h 47 min
  56. Bit rate                                 : 94 b/s
  57. Count of elements                        : 1793
  58. Stream size                              : 74.4 KiB (0%)
  59. Language                                 : English
  60. Default                                  : No
  61. Forced                                   : No
復制代碼









分享到:  QQ好友和群QQ好友和群
收藏收藏
VIP會員免費任意下載本站所有資源!---點擊開通
回復

使用道具 舉報

懶得打字嘛,點擊右側快捷回復 【右側內容,后臺自定義】
您需要登錄后才可以回帖 登錄 | 立即注冊

本版積分規則

QQ|Archiver|手機版|小黑屋| 中國高清網 |網站地圖

GMT+8, 2019-12-9 10:55 , Processed in 0.245587 second(s), 36 queries .

Powered by HDchina X3.4

Copyright 2017-2019©HDchina.All right reserved

返回頂部 聯系我們
胜负彩19080期