查看: 16|回復: 0
打印 上一主題 下一主題

[劇情片] 前人身份 Last.Man.Standing.2011.1080p.AMZN.WEBRip.DDP5.1.x264-ABM 3.91GB

[復制鏈接]

 成長值: 3400

級別:資源管理組

注冊時間
2017-10-20
最后登錄
2019-12-9
聽眾
1
收聽
0
主題
88290
藍光幣
69428 枚
貢獻
12652 點
跳轉到指定樓層
樓主
發表于 2019-11-2 21:17:13 | 只看該作者 |只看大圖 回帖獎勵 |倒序瀏覽 |閱讀模式


譯  名 前人身份
片  名 Last Man Standing
年  代 2011
產  地 美國
類  別 劇情
語  言 英語
IMDb評分  5.2/10 from 607 users
IMDb鏈接  https://www.imdb.com/title/tt1753597
豆瓣評分 0/10 from 0 users
豆瓣鏈接 https://movie.douban.com/subject/10492840/
片  長 83分鐘
導  演 厄內斯特·R·迪克森 Ernest R. Dickerson
主  演 安東尼·邁克爾·豪爾 Anthony Michael Hall
       凱瑟琳·貝爾 Catherine Bell
       梅奇·費法 Mekhi Phifer
       埃萊·巴德漢 Ele Bardha
       Tiffani Elise Edwards
       Chris Torres
       Joseph Smith
       Ron Causey
       Oz Noori


標  簽 美國 | 劇情 | 電影 | 不感興趣 | Feature

簡  介  

  Abby Collins is a former Marine who is now a happily married housewife but soon discovers she will need to put her highly trained operative skills to use when her past comes to haunt her.
  In the action thriller Last Man Standing, Abby Collins (Catherine Bell) is a happy suburban wife and mother who has been concealing her dark past as a military-trained special-ops agent. But when her husband is mysteriously kidnapped, Abby’s past returns to haunt her, and she must risk everything to protect her daughter and save the man she loves. Mekhi Phifer and Anthony Michael Hall co-star.
  1. Video
  2. ID                                       : 1
  3. Format                                   : AVC
  4. Format/Info                              : Advanced Video Codec
  5. Format profile                           : [email protected]
  6. Format settings                          : CABAC / 4 Ref Frames
  7. Format settings, CABAC                   : Yes
  8. Format settings, Reference frames        : 4 frames
  9. Codec ID                                 : V_MPEG4/ISO/AVC
  10. Duration                                 : 1 h 24 min
  11. Bit rate mode                            : Variable
  12. Bit rate                                 : 6 005 kb/s
  13. Maximum bit rate                         : 15.0 Mb/s
  14. Width                                    : 1 920 pixels
  15. Height                                   : 1 080 pixels
  16. Display aspect ratio                     : 16:9
  17. Frame rate mode                          : Constant
  18. Frame rate                               : 23.976 (24000/1001) FPS
  19. Color space                              : YUV
  20. Chroma subsampling                       : 4:2:0
  21. Bit depth                                : 8 bits
  22. Scan type                                : Progressive
  23. Bits/(Pixel*Frame)                       : 0.121
  24. Stream size                              : 3.53 GiB (90%)
  25. Writing library                          : x264 core 148 r2623 d5b2374
  26. Encoding settings                        : cabac=1 / ref=4 / deblock=1:-1:-1 / analyse=0x3:0x133 / me=umh / subme=9 / psy=1 / psy_rd=1.00:0.15 / mixed_ref=1 / me_range=24 / chroma_me=1 / trellis=2 / 8x8dct=1 / cqm=0 / deadzone=21,11 / fast_pskip=1 / chroma_qp_offset=-3 / threads=34 / lookahead_threads=5 / sliced_threads=0 / nr=150 / decimate=1 / interlaced=0 / bluray_compat=0 / constrained_intra=0 / bframes=8 / b_pyramid=2 / b_adapt=2 / b_bias=0 / direct=3 / weightb=1 / open_gop=0 / weightp=2 / keyint=120 / keyint_min=61 / scenecut=0 / intra_refresh=0 / rc_lookahead=120 / rc=crf / mbtree=1 / crf=18.0 / qcomp=0.60 / qpmin=0 / qpmax=69 / qpstep=4 / vbv_maxrate=15000 / vbv_bufsize=31250 / crf_max=0.0 / nal_hrd=vbr / filler=0 / ip_ratio=1.40 / aq=3:1.00
  27. Default                                  : Yes
  28. Forced                                   : No
  29. Color range                              : Limited
  30. Color primaries                          : BT.709
  31. Transfer characteristics                 : BT.709
  32. Matrix coefficients                      : BT.709

  33. Audio
  34. ID                                       : 2
  35. Format                                   : E-AC-3
  36. Format/Info                              : Enhanced AC-3
  37. Commercial name                          : Dolby Digital Plus
  38. Codec ID                                 : A_EAC3
  39. Duration                                 : 1 h 24 min
  40. Bit rate mode                            : Constant
  41. Bit rate                                 : 640 kb/s
  42. Channel(s)                               : 6 channels
  43. Channel layout                           : L R C LFE Ls Rs
  44. Sampling rate                            : 48.0 kHz
  45. Frame rate                               : 31.250 FPS (1536 SPF)
  46. Compression mode                         : Lossy
  47. Stream size                              : 385 MiB (10%)
  48. Language                                 : English
  49. Service kind                             : Complete Main
  50. Default                                  : Yes
  51. Forced                                   : No

  52. Text #1
  53. ID                                       : 3
  54. Format                                   : UTF-8
  55. Codec ID                                 : S_TEXT/UTF8
  56. Codec ID/Info                            : UTF-8 Plain Text
  57. Duration                                 : 1 h 22 min
  58. Bit rate                                 : 52 b/s
  59. Count of elements                        : 1033
  60. Stream size                              : 32.1 KiB (0%)
  61. Language                                 : English
  62. Default                                  : No
  63. Forced                                   : No

  64. Text #2
  65. ID                                       : 4
  66. Format                                   : UTF-8
  67. Codec ID                                 : S_TEXT/UTF8
  68. Codec ID/Info                            : UTF-8 Plain Text
  69. Duration                                 : 1 h 22 min
  70. Bit rate                                 : 54 b/s
  71. Count of elements                        : 1101
  72. Stream size                              : 33.1 KiB (0%)
  73. Title                                    : SDH
  74. Language                                 : English
  75. Default                                  : No
  76. Forced                                   : No
復制代碼









分享到:  QQ好友和群QQ好友和群
收藏收藏
VIP會員免費任意下載本站所有資源!---點擊開通
回復

使用道具 舉報

懶得打字嘛,點擊右側快捷回復 【右側內容,后臺自定義】
您需要登錄后才可以回帖 登錄 | 立即注冊

本版積分規則

QQ|Archiver|手機版|小黑屋| 中國高清網 |網站地圖

GMT+8, 2019-12-9 10:27 , Processed in 0.187536 second(s), 36 queries .

Powered by HDchina X3.4

Copyright 2017-2019©HDchina.All right reserved

返回頂部 聯系我們
胜负彩19080期