查看: 14|回復: 0
打印 上一主題 下一主題

[劇情片] 救生員 Lifeguard.1976.1080p.AMZN.WEBRip.DDP2.0.x264-FGT 10.22GB

[復制鏈接]

 成長值: 3400

級別:資源管理組

注冊時間
2017-10-20
最后登錄
2019-12-9
聽眾
1
收聽
0
主題
88290
藍光幣
69434 枚
貢獻
12652 點
跳轉到指定樓層
樓主
發表于 2019-11-2 21:18:30 | 只看該作者 |只看大圖 回帖獎勵 |倒序瀏覽 |閱讀模式


譯  名 救生員
片  名 Lifeguard
年  代 1976
產  地 美國
類  別 劇情
語  言 英語
上映日期 1976-07-23
IMDb評分  6.7/10 from 999 users
IMDb鏈接  https://www.imdb.com/title/tt0074798
豆瓣評分 0/10 from 0 users
豆瓣鏈接 https://movie.douban.com/subject/3067648/
片  長 96 分鐘
導  演 Daniel Petrie
編  劇 Ron Koslow
主  演 Sam Elliott
       Anne Archer


標  簽 被忽視的片子 | 美國電影 | 美國 | 愛情 | 未下載 | 文藝 | 安妮·阿徹 | 劇情

簡  介  

  Rick is in his 30s, but still works full-time as a lifeguard on the beaches of Los Angeles in California. He enjoys the fun of it, but even more the silent moments. However when he meets his divorced highschool girlfriend and her 5 years old son at their 15 years class reunion, he considers switching to a more "serious" job.
  1. Video
  2. ID                                       : 1
  3. Format                                   : AVC
  4. Format/Info                              : Advanced Video Codec
  5. Format profile                           : [email protected]
  6. Format settings                          : CABAC / 4 Ref Frames
  7. Format settings, CABAC                   : Yes
  8. Format settings, Reference frames        : 4 frames
  9. Codec ID                                 : V_MPEG4/ISO/AVC
  10. Duration                                 : 1 h 36 min
  11. Bit rate mode                            : Variable
  12. Bit rate                                 : 15.0 Mb/s
  13. Width                                    : 1 920 pixels
  14. Height                                   : 1 080 pixels
  15. Display aspect ratio                     : 16:9
  16. Frame rate mode                          : Constant
  17. Frame rate                               : 23.976 (24000/1001) FPS
  18. Color space                              : YUV
  19. Chroma subsampling                       : 4:2:0
  20. Bit depth                                : 8 bits
  21. Scan type                                : Progressive
  22. Bits/(Pixel*Frame)                       : 0.302
  23. Stream size                              : 10.1 GiB (99%)
  24. Writing library                          : x264 core 148 r2623 d5b2374
  25. Encoding settings                        : cabac=1 / ref=4 / deblock=1:-1:-1 / analyse=0x3:0x133 / me=umh / subme=9 / psy=1 / psy_rd=1.00:0.15 / mixed_ref=1 / me_range=24 / chroma_me=1 / trellis=2 / 8x8dct=1 / cqm=0 / deadzone=21,11 / fast_pskip=1 / chroma_qp_offset=-3 / threads=34 / lookahead_threads=5 / sliced_threads=0 / nr=150 / decimate=1 / interlaced=0 / bluray_compat=0 / constrained_intra=0 / bframes=8 / b_pyramid=2 / b_adapt=2 / b_bias=0 / direct=3 / weightb=1 / open_gop=0 / weightp=2 / keyint=120 / keyint_min=61 / scenecut=0 / intra_refresh=0 / rc_lookahead=120 / rc=crf / mbtree=1 / crf=18.0 / qcomp=0.60 / qpmin=0 / qpmax=69 / qpstep=4 / vbv_maxrate=15000 / vbv_bufsize=31250 / crf_max=0.0 / nal_hrd=vbr / filler=0 / ip_ratio=1.40 / aq=3:1.00
  26. Default                                  : Yes
  27. Forced                                   : No
  28. Color range                              : Limited
  29. Color primaries                          : BT.709
  30. Transfer characteristics                 : BT.709
  31. Matrix coefficients                      : BT.709

  32. Audio
  33. ID                                       : 2
  34. Format                                   : E-AC-3
  35. Format/Info                              : Enhanced AC-3
  36. Commercial name                          : Dolby Digital Plus
  37. Codec ID                                 : A_EAC3
  38. Duration                                 : 1 h 36 min
  39. Bit rate mode                            : Constant
  40. Bit rate                                 : 224 kb/s
  41. Channel(s)                               : 2 channels
  42. Channel layout                           : L R
  43. Sampling rate                            : 48.0 kHz
  44. Frame rate                               : 31.250 FPS (1536 SPF)
  45. Compression mode                         : Lossy
  46. Stream size                              : 155 MiB (1%)
  47. Language                                 : English
  48. Service kind                             : Complete Main
  49. Default                                  : No
  50. Forced                                   : No

  51. Text
  52. ID                                       : 3
  53. Format                                   : UTF-8
  54. Codec ID                                 : S_TEXT/UTF8
  55. Codec ID/Info                            : UTF-8 Plain Text
  56. Duration                                 : 1 h 36 min
  57. Bit rate                                 : 100 b/s
  58. Count of elements                        : 2869
  59. Stream size                              : 70.6 KiB (0%)
  60. Language                                 : English
  61. Default                                  : No
  62. Forced                                   : No

  63. Menu
  64. 00:00:00.000                             : en:Laws Of Lifeguarding
  65. 00:06:11.000                             : en:Old Boy Scout Tricks
  66. 00:14:10.000                             : en:Late Night Visit
  67. 00:23:05.000                             : en:An After Hours Proposition
  68. 00:32:07.000                             : en:A Visit Home
  69. 00:40:31.000                             : en:High School Reunion
  70. 00:47:44.000                             : en:An Old Flame
  71. 00:55:45.000                             : en:Lifeguard Relays
  72. 01:02:08.000                             : en:Moving Up Or Out?
  73. 01:09:44.000                             : en:Gentle Breakup
  74. 01:14:43.000                             : en:Pondering New Endeavors
  75. 01:21:19.000                             : en:Another Offer
  76. 01:28:18.000                             : en:Staying Put
復制代碼









分享到:  QQ好友和群QQ好友和群
收藏收藏
VIP會員免費任意下載本站所有資源!---點擊開通
回復

使用道具 舉報

懶得打字嘛,點擊右側快捷回復 【右側內容,后臺自定義】
您需要登錄后才可以回帖 登錄 | 立即注冊

本版積分規則

QQ|Archiver|手機版|小黑屋| 中國高清網 |網站地圖

GMT+8, 2019-12-9 10:51 , Processed in 0.325956 second(s), 36 queries .

Powered by HDchina X3.4

Copyright 2017-2019©HDchina.All right reserved

返回頂部 聯系我們
胜负彩19080期