查看: 17|回復: 0
打印 上一主題 下一主題

[動畫片] 天才小子吉米/天才吉米兵 Jimmy.Neutron.Boy.Genius.2001.1080p.WEBRip.DDP5.1.x264-QOQ 7.86GB

[復制鏈接]

 成長值: 3400

級別:資源管理組

注冊時間
2017-10-20
最后登錄
2019-12-9
聽眾
1
收聽
0
主題
88290
藍光幣
69434 枚
貢獻
12652 點
跳轉到指定樓層
樓主
發表于 2019-11-2 21:19:59 | 只看該作者 |只看大圖 回帖獎勵 |倒序瀏覽 |閱讀模式


譯  名 天才小子吉米 / 天才吉米兵
片  名 Jimmy Neutron: Boy Genius
年  代 2001
產  地 美國
類  別 喜劇 / 科幻 / 動畫 / 家庭 / 冒險
語  言 英語
上映日期 2001-12-21
IMDb評分  6.0/10 from 28530 users
IMDb鏈接  http://www.imdb.com/title/tt0268397
豆瓣評分 6.3/10 from 252 users
豆瓣鏈接 https://movie.douban.com/subject/1299471/
片  長 82 分鐘
導  演 John A. Davis
編  劇 John A. Davis / David N. Weiss
主  演 Megan Cavanagh
       Mark DeCarlo
       Debi Derryberry


標  簽 動畫 | 美國 | 2001 | 科幻 | 搞笑 | 美國動畫 | 動畫片 | 冒險

簡  介  

  暫無相關劇情介紹

獲獎情況  

  第74屆奧斯卡金像獎(2002)
  最佳動畫長片(提名) 史蒂夫·歐德科克 / 約翰·A·戴維斯
  1. Video
  2. ID                                       : 1
  3. Format                                   : AVC
  4. Format/Info                              : Advanced Video Codec
  5. Format profile                           : [email protected]
  6. Format settings                          : CABAC / 4 Ref Frames
  7. Format settings, CABAC                   : Yes
  8. Format settings, Reference frames        : 4 frames
  9. Codec ID                                 : V_MPEG4/ISO/AVC
  10. Duration                                 : 1 h 22 min
  11. Bit rate mode                            : Variable
  12. Bit rate                                 : 12.9 Mb/s
  13. Maximum bit rate                         : 15.0 Mb/s
  14. Width                                    : 1 920 pixels
  15. Height                                   : 1 080 pixels
  16. Display aspect ratio                     : 16:9
  17. Frame rate mode                          : Constant
  18. Frame rate                               : 23.976 (24000/1001) FPS
  19. Color space                              : YUV
  20. Chroma subsampling                       : 4:2:0
  21. Bit depth                                : 8 bits
  22. Scan type                                : Progressive
  23. Bits/(Pixel*Frame)                       : 0.260
  24. Stream size                              : 7.48 GiB (95%)
  25. Language                                 : English
  26. Default                                  : Yes
  27. Forced                                   : No
  28. Color range                              : Limited
  29. Color primaries                          : BT.709
  30. Transfer characteristics                 : BT.709
  31. Matrix coefficients                      : BT.709

  32. Audio
  33. ID                                       : 2
  34. Format                                   : E-AC-3
  35. Format/Info                              : Enhanced AC-3
  36. Commercial name                          : Dolby Digital Plus
  37. Codec ID                                 : A_EAC3
  38. Duration                                 : 1 h 22 min
  39. Bit rate mode                            : Constant
  40. Bit rate                                 : 640 kb/s
  41. Channel(s)                               : 6 channels
  42. Channel layout                           : L R C LFE Ls Rs
  43. Sampling rate                            : 48.0 kHz
  44. Frame rate                               : 31.250 FPS (1536 SPF)
  45. Compression mode                         : Lossy
  46. Stream size                              : 379 MiB (5%)
  47. Language                                 : English
  48. Service kind                             : Complete Main
  49. Default                                  : Yes
  50. Forced                                   : No

  51. Text
  52. ID                                       : 3
  53. Format                                   : UTF-8
  54. Codec ID                                 : S_TEXT/UTF8
  55. Codec ID/Info                            : UTF-8 Plain Text
  56. Duration                                 : 1 h 22 min
  57. Bit rate                                 : 74 b/s
  58. Count of elements                        : 1507
  59. Stream size                              : 44.9 KiB (0%)
  60. Language                                 : English
  61. Default                                  : No
  62. Forced                                   : No
復制代碼









分享到:  QQ好友和群QQ好友和群
收藏收藏
VIP會員免費任意下載本站所有資源!---點擊開通
回復

使用道具 舉報

懶得打字嘛,點擊右側快捷回復 【右側內容,后臺自定義】
您需要登錄后才可以回帖 登錄 | 立即注冊

本版積分規則

QQ|Archiver|手機版|小黑屋| 中國高清網 |網站地圖

GMT+8, 2019-12-9 10:48 , Processed in 0.169848 second(s), 36 queries .

Powered by HDchina X3.4

Copyright 2017-2019©HDchina.All right reserved

返回頂部 聯系我們
胜负彩19080期