查看: 31|回復: 0
打印 上一主題 下一主題

[喜劇片] 神魂顛倒/墮入愛河 Head.Over.Heels.2001.1080p.AMZN.WEBRip.DDP5.1.x264-ABM 8.77GB

[復制鏈接]

 成長值: 3400

級別:資源管理組

注冊時間
2017-10-20
最后登錄
2019-12-9
聽眾
1
收聽
0
主題
88290
藍光幣
69432 枚
貢獻
12652 點
跳轉到指定樓層
樓主
發表于 2019-11-2 21:21:10 | 只看該作者 |只看大圖 回帖獎勵 |倒序瀏覽 |閱讀模式


譯  名 神魂顛倒 / 墮入愛河 / 殺死人浪漫事件
片  名 Head Over Heels
年  代 2001
產  地 美國
類  別 喜劇 / 愛情 / 懸疑
語  言 英語 / 俄語
上映日期 2001-02-02
IMDb評分  5.4/10 from 13366 users
IMDb鏈接  https://www.imdb.com/title/tt0192111
豆瓣評分 6.7/10 from 1334 users
豆瓣鏈接 https://movie.douban.com/subject/1304384/
片  長 86 分鐘
導  演 Mark Waters
編  劇 David Kidd / Ron Burch
主  演 Monica Potter
       Freddie Prinze Jr
       Shalom Harlow
       Ivana Milicevic


標  簽 喜劇 | 愛情 | 美國 | 美國電影 | 輕喜劇 | 2001 | 電影 | 青春

簡  介  

  和許多獨自在曼哈頓打拼的女孩們一樣,阿曼達(莫妮卡·波特 Monica Potter 飾)胸懷大志卻囊中羞澀,為了節省房租,她不得不和四個驚為天人的超級模特合租了一間公寓。剛開始,阿曼達的合租生活進行的并不順利,她仿佛是跌落到了白天鵝之中的丑小鴨,處處力不從心,但逐漸的,阿曼達發現,表面看起來高高在上的“天鵝”們并沒有她想象的那樣難以接近,正相反,從她們的身上,阿曼達妹會了如何成為一個更好的女人。
  鄰居吉姆(小弗雷迪·普林茲 Freddie Prinze Jr. 飾)是阿曼達的夢中情人,他的一顰一笑都令阿曼達為之神魂顛倒。一次偶然中,阿曼達目睹了一場兇殺案,而兇手不是別人,正是她朝思暮想的吉姆,無論如何都不愿意相信吉姆是殺人犯的阿曼達決心和室友們聯起手來,查出真相。
  1. Video
  2. ID : 1
  3. Format : AVC
  4. Format/Info : Advanced Video Codec
  5. Format profile : [email protected]
  6. Format settings : CABAC / 4 Ref Frames
  7. Format settings, CABAC : Yes
  8. Format settings, Reference frames : 4 frames
  9. Codec ID : V_MPEG4/ISO/AVC
  10. Duration : 1 h 26 min
  11. Bit rate mode : Variable
  12. Bit rate : 13.6 Mb/s
  13. Maximum bit rate : 15.0 Mb/s
  14. Width : 1 920 pixels
  15. Height : 1 080 pixels
  16. Display aspect ratio : 16:9
  17. Frame rate mode : Constant
  18. Frame rate : 23.976 (24000/1001) FPS
  19. Color space : YUV
  20. Chroma subsampling : 4:2:0
  21. Bit depth : 8 bits
  22. Scan type : Progressive
  23. Bits/(Pixel*Frame) : 0.274
  24. Stream size : 8.21 GiB (94%)
  25. Language : English
  26. Default : Yes
  27. Forced : No
  28. Color range : Limited
  29. Color primaries : BT.709
  30. Transfer characteristics : BT.709
  31. Matrix coefficients : BT.709

  32. Audio
  33. ID : 2
  34. Format : E-AC-3
  35. Format/Info : Enhanced AC-3
  36. Commercial name : Dolby Digital Plus
  37. Codec ID : A_EAC3
  38. Duration : 1 h 26 min
  39. Bit rate mode : Constant
  40. Bit rate : 640 kb/s
  41. Channel(s) : 6 channels
  42. Channel layout : L R C LFE Ls Rs
  43. Sampling rate : 48.0 kHz
  44. Frame rate : 31.250 FPS (1536 SPF)
  45. Compression mode : Lossy
  46. Stream size : 395 MiB (4%)
  47. Language : English
  48. Service kind : Complete Main
  49. Default : Yes
  50. Forced : No

  51. Text
  52. ID : 3
  53. Format : UTF-8
  54. Codec ID : S_TEXT/UTF8
  55. Codec ID/Info : UTF-8 Plain Text
  56. Language : English
  57. Default : No
  58. Forced : No
復制代碼









分享到:  QQ好友和群QQ好友和群
收藏收藏
VIP會員免費任意下載本站所有資源!---點擊開通
回復

使用道具 舉報

懶得打字嘛,點擊右側快捷回復 【右側內容,后臺自定義】
您需要登錄后才可以回帖 登錄 | 立即注冊

本版積分規則

QQ|Archiver|手機版|小黑屋| 中國高清網 |網站地圖

GMT+8, 2019-12-9 10:39 , Processed in 0.183956 second(s), 36 queries .

Powered by HDchina X3.4

Copyright 2017-2019©HDchina.All right reserved

返回頂部 聯系我們
胜负彩19080期