查看: 16|回復: 0
打印 上一主題 下一主題

[恐怖片] 家庭血液 Family.Blood.2018.1080p.NF.WEBRip.DD5.1.x264-NTG 1.45GB

[復制鏈接]

 成長值: 3400

級別:資源管理組

注冊時間
2017-10-20
最后登錄
2019-12-9
聽眾
1
收聽
0
主題
88290
藍光幣
69428 枚
貢獻
12652 點
跳轉到指定樓層
樓主
發表于 2019-11-2 21:22:04 | 只看該作者 |只看大圖 回帖獎勵 |倒序瀏覽 |閱讀模式


譯  名 家庭血液
片  名 Family Blood
年  代 2018
產  地 美國
類  別 恐怖
語  言 英語
上映日期 2018-03-16(美國)
IMDb評分  4.2/10 from 1895 users
IMDb鏈接  https://www.imdb.com/title/tt7895904
豆瓣評分 4.2/10 from 146 users
豆瓣鏈接 https://movie.douban.com/subject/30170848/
片  長 92分鐘
導  演 拿尼·墨海 Sonny Mallhi
編  劇 拿尼·墨海 Sonny Mallhi / Nick Savvides
主  演 凡妮莎·肖 Vinessa Shaw
       詹姆斯· 蘭索恩 James Ransone
       科林·福特 Colin Ford
       阿瓊娜·亞歷克蘇絲 Ajiona Alexus
       Eloise Lushina
       Davis Aguila
       Ciaran Brown
       馬修·戴維斯 Matthew Davis
       Carson Meyer
       Nicholas Palacio
       Emmalee Parker


標  簽 恐怖 | 吸血鬼 | 驚悚 | 美國電影 | 美國 | 2018 | 血腥 | 爛片

簡  介  

  Ellie, a recovering drug addict, has just moved to a new city with her two teenage children. She has struggled to stay sober in the past and is determined to make it work this time, finding a stable job and regularly attending her meetings. Unfortunately, new friends, a new job, and the chance of a new life, can't keep Ellie from slipping once again. Her life changes when she meets Christopher - a different kind of addict - which forces her daughter and son to accept a new version of Ellie.
  1. Video
  2. ID                                       : 1
  3. Format                                   : AVC
  4. Format/Info                              : Advanced Video Codec
  5. Format profile                           : [email protected]
  6. Format settings                          : CABAC / 3 Ref Frames
  7. Format settings, CABAC                   : Yes
  8. Format settings, Reference frames        : 3 frames
  9. Codec ID                                 : V_MPEG4/ISO/AVC
  10. Duration                                 : 1 h 32 min
  11. Bit rate mode                            : Variable
  12. Bit rate                                 : 1 870 kb/s
  13. Maximum bit rate                         : 2 805 kb/s
  14. Width                                    : 1 920 pixels
  15. Height                                   : 1 080 pixels
  16. Display aspect ratio                     : 16:9
  17. Frame rate mode                          : Constant
  18. Frame rate                               : 23.976 (24000/1001) FPS
  19. Color space                              : YUV
  20. Chroma subsampling                       : 4:2:0
  21. Bit depth                                : 8 bits
  22. Scan type                                : Progressive
  23. Bits/(Pixel*Frame)                       : 0.038
  24. Stream size                              : 1.20 GiB (83%)
  25. Writing library                          : x264 core 148 r2714 2daf636
  26. Encoding settings                        : cabac=1 / ref=3 / deblock=1:0:0 / analyse=0x1:0x111 / me=umh / subme=10 / psy=1 / psy_rd=1.00:0.00 / mixed_ref=1 / me_range=24 / chroma_me=1 / trellis=2 / 8x8dct=0 / cqm=0 / deadzone=21,11 / fast_pskip=1 / chroma_qp_offset=-2 / threads=8 / lookahead_threads=1 / sliced_threads=0 / nr=0 / decimate=1 / interlaced=0 / bluray_compat=0 / stitchable=1 / constrained_intra=0 / bframes=2 / b_pyramid=0 / b_adapt=2 / b_bias=0 / direct=3 / weightb=1 / open_gop=0 / weightp=2 / keyint=48 / keyint_min=25 / scenecut=0 / intra_refresh=0 / rc_lookahead=48 / rc=2pass / mbtree=1 / bitrate=1870 / ratetol=1.0 / qcomp=0.50 / qpmin=6 / qpmax=51 / qpstep=4 / cplxblur=20.0 / qblur=0.5 / vbv_maxrate=2805 / vbv_bufsize=3740 / nal_hrd=vbr / filler=0 / ip_ratio=1.40 / aq=1:1.00
  27. Default                                  : Yes
  28. Forced                                   : No

  29. Audio
  30. ID                                       : 2
  31. Format                                   : AC-3
  32. Format/Info                              : Audio Coding 3
  33. Commercial name                          : Dolby Digital
  34. Codec ID                                 : A_AC3
  35. Duration                                 : 1 h 32 min
  36. Bit rate mode                            : Constant
  37. Bit rate                                 : 384 kb/s
  38. Channel(s)                               : 6 channels
  39. Channel layout                           : L R C LFE Ls Rs
  40. Sampling rate                            : 48.0 kHz
  41. Frame rate                               : 31.250 FPS (1536 SPF)
  42. Bit depth                                : 16 bits
  43. Compression mode                         : Lossy
  44. Stream size                              : 254 MiB (17%)
  45. Title                                    : English
  46. Language                                 : English
  47. Service kind                             : Complete Main
  48. Default                                  : Yes
  49. Forced                                   : No

  50. Text #1
  51. ID                                       : 3
  52. Format                                   : UTF-8
  53. Codec ID                                 : S_TEXT/UTF8
  54. Codec ID/Info                            : UTF-8 Plain Text
  55. Duration                                 : 1 h 24 min
  56. Bit rate                                 : 23 b/s
  57. Count of elements                        : 526
  58. Stream size                              : 14.7 KiB (0%)
  59. Language                                 : English
  60. Default                                  : Yes
  61. Forced                                   : No

  62. Text #2
  63. ID                                       : 4
  64. Format                                   : UTF-8
  65. Codec ID                                 : S_TEXT/UTF8
  66. Codec ID/Info                            : UTF-8 Plain Text
  67. Duration                                 : 1 h 27 min
  68. Bit rate                                 : 27 b/s
  69. Count of elements                        : 653
  70. Stream size                              : 17.3 KiB (0%)
  71. Title                                    : SDH
  72. Language                                 : English
  73. Default                                  : No
  74. Forced                                   : No

  75. Text #3
  76. ID                                       : 5
  77. Format                                   : UTF-8
  78. Codec ID                                 : S_TEXT/UTF8
  79. Codec ID/Info                            : UTF-8 Plain Text
  80. Duration                                 : 1 h 25 min
  81. Bit rate                                 : 39 b/s
  82. Count of elements                        : 519
  83. Stream size                              : 24.4 KiB (0%)
  84. Language                                 : Arabic
  85. Default                                  : No
  86. Forced                                   : No

  87. Text #4
  88. ID                                       : 6
  89. Format                                   : UTF-8
  90. Codec ID                                 : S_TEXT/UTF8
  91. Codec ID/Info                            : UTF-8 Plain Text
  92. Duration                                 : 1 h 25 min
  93. Bit rate                                 : 21 b/s
  94. Count of elements                        : 519
  95. Stream size                              : 13.7 KiB (0%)
  96. Language                                 : Danish
  97. Default                                  : No
  98. Forced                                   : No

  99. Text #5
  100. ID                                       : 7
  101. Format                                   : UTF-8
  102. Codec ID                                 : S_TEXT/UTF8
  103. Codec ID/Info                            : UTF-8 Plain Text
  104. Duration                                 : 1 h 25 min
  105. Bit rate                                 : 23 b/s
  106. Count of elements                        : 521
  107. Stream size                              : 14.7 KiB (0%)
  108. Language                                 : German
  109. Default                                  : No
  110. Forced                                   : No

  111. Text #6
  112. ID                                       : 8
  113. Format                                   : UTF-8
  114. Codec ID                                 : S_TEXT/UTF8
  115. Codec ID/Info                            : UTF-8 Plain Text
  116. Duration                                 : 1 h 25 min
  117. Bit rate                                 : 36 b/s
  118. Count of elements                        : 520
  119. Stream size                              : 22.8 KiB (0%)
  120. Language                                 : Greek
  121. Default                                  : No
  122. Forced                                   : No

  123. Text #7
  124. ID                                       : 9
  125. Format                                   : UTF-8
  126. Codec ID                                 : S_TEXT/UTF8
  127. Codec ID/Info                            : UTF-8 Plain Text
  128. Duration                                 : 1 h 25 min
  129. Bit rate                                 : 22 b/s
  130. Count of elements                        : 520
  131. Stream size                              : 14.2 KiB (0%)
  132. Language                                 : Spanish
  133. Default                                  : No
  134. Forced                                   : No

  135. Text #8
  136. ID                                       : 10
  137. Format                                   : UTF-8
  138. Codec ID                                 : S_TEXT/UTF8
  139. Codec ID/Info                            : UTF-8 Plain Text
  140. Duration                                 : 1 h 25 min
  141. Bit rate                                 : 23 b/s
  142. Count of elements                        : 508
  143. Stream size                              : 14.7 KiB (0%)
  144. Title                                    : European
  145. Language                                 : Spanish
  146. Default                                  : No
  147. Forced                                   : No

  148. Text #9
  149. ID                                       : 11
  150. Format                                   : UTF-8
  151. Codec ID                                 : S_TEXT/UTF8
  152. Codec ID/Info                            : UTF-8 Plain Text
  153. Duration                                 : 1 h 25 min
  154. Bit rate                                 : 22 b/s
  155. Count of elements                        : 518
  156. Stream size                              : 14.0 KiB (0%)
  157. Language                                 : Finnish
  158. Default                                  : No
  159. Forced                                   : No

  160. Text #10
  161. ID                                       : 12
  162. Format                                   : UTF-8
  163. Codec ID                                 : S_TEXT/UTF8
  164. Codec ID/Info                            : UTF-8 Plain Text
  165. Duration                                 : 1 h 25 min
  166. Bit rate                                 : 21 b/s
  167. Count of elements                        : 520
  168. Stream size                              : 13.6 KiB (0%)
  169. Language                                 : French
  170. Default                                  : No
  171. Forced                                   : No

  172. Text #11
  173. ID                                       : 13
  174. Format                                   : UTF-8
  175. Codec ID                                 : S_TEXT/UTF8
  176. Codec ID/Info                            : UTF-8 Plain Text
  177. Duration                                 : 1 h 25 min
  178. Bit rate                                 : 35 b/s
  179. Count of elements                        : 519
  180. Stream size                              : 22.3 KiB (0%)
  181. Language                                 : Hebrew
  182. Default                                  : No
  183. Forced                                   : No

  184. Text #12
  185. ID                                       : 14
  186. Format                                   : UTF-8
  187. Codec ID                                 : S_TEXT/UTF8
  188. Codec ID/Info                            : UTF-8 Plain Text
  189. Duration                                 : 1 h 25 min
  190. Bit rate                                 : 21 b/s
  191. Count of elements                        : 514
  192. Stream size                              : 13.4 KiB (0%)
  193. Language                                 : Italian
  194. Default                                  : No
  195. Forced                                   : No

  196. Text #13
  197. ID                                       : 15
  198. Format                                   : UTF-8
  199. Codec ID                                 : S_TEXT/UTF8
  200. Codec ID/Info                            : UTF-8 Plain Text
  201. Duration                                 : 1 h 25 min
  202. Bit rate                                 : 22 b/s
  203. Count of elements                        : 539
  204. Stream size                              : 13.7 KiB (0%)
  205. Language                                 : Japanese
  206. Default                                  : No
  207. Forced                                   : No

  208. Text #14
  209. ID                                       : 16
  210. Format                                   : UTF-8
  211. Codec ID                                 : S_TEXT/UTF8
  212. Codec ID/Info                            : UTF-8 Plain Text
  213. Duration                                 : 1 h 25 min
  214. Bit rate                                 : 26 b/s
  215. Count of elements                        : 522
  216. Stream size                              : 16.5 KiB (0%)
  217. Language                                 : Korean
  218. Default                                  : No
  219. Forced                                   : No

  220. Text #15
  221. ID                                       : 17
  222. Format                                   : UTF-8
  223. Codec ID                                 : S_TEXT/UTF8
  224. Codec ID/Info                            : UTF-8 Plain Text
  225. Duration                                 : 1 h 25 min
  226. Bit rate                                 : 22 b/s
  227. Count of elements                        : 519
  228. Stream size                              : 14.0 KiB (0%)
  229. Language                                 : Norwegian Bokmal
  230. Default                                  : No
  231. Forced                                   : No

  232. Text #16
  233. ID                                       : 18
  234. Format                                   : UTF-8
  235. Codec ID                                 : S_TEXT/UTF8
  236. Codec ID/Info                            : UTF-8 Plain Text
  237. Duration                                 : 1 h 25 min
  238. Bit rate                                 : 19 b/s
  239. Count of elements                        : 507
  240. Stream size                              : 12.3 KiB (0%)
  241. Language                                 : Dutch
  242. Default                                  : No
  243. Forced                                   : No

  244. Text #17
  245. ID                                       : 19
  246. Format                                   : UTF-8
  247. Codec ID                                 : S_TEXT/UTF8
  248. Codec ID/Info                            : UTF-8 Plain Text
  249. Duration                                 : 1 h 25 min
  250. Bit rate                                 : 22 b/s
  251. Count of elements                        : 519
  252. Stream size                              : 14.2 KiB (0%)
  253. Language                                 : Polish
  254. Default                                  : No
  255. Forced                                   : No

  256. Text #18
  257. ID                                       : 20
  258. Format                                   : UTF-8
  259. Codec ID                                 : S_TEXT/UTF8
  260. Codec ID/Info                            : UTF-8 Plain Text
  261. Duration                                 : 1 h 25 min
  262. Bit rate                                 : 21 b/s
  263. Count of elements                        : 504
  264. Stream size                              : 13.6 KiB (0%)
  265. Language                                 : Portuguese
  266. Default                                  : No
  267. Forced                                   : No

  268. Text #19
  269. ID                                       : 21
  270. Format                                   : UTF-8
  271. Codec ID                                 : S_TEXT/UTF8
  272. Codec ID/Info                            : UTF-8 Plain Text
  273. Duration                                 : 1 h 25 min
  274. Bit rate                                 : 21 b/s
  275. Count of elements                        : 513
  276. Stream size                              : 13.1 KiB (0%)
  277. Title                                    : Brazilian
  278. Language                                 : Portuguese
  279. Default                                  : No
  280. Forced                                   : No

  281. Text #20
  282. ID                                       : 22
  283. Format                                   : UTF-8
  284. Codec ID                                 : S_TEXT/UTF8
  285. Codec ID/Info                            : UTF-8 Plain Text
  286. Duration                                 : 1 h 24 min
  287. Bit rate                                 : 23 b/s
  288. Count of elements                        : 518
  289. Stream size                              : 14.6 KiB (0%)
  290. Language                                 : Romanian
  291. Default                                  : No
  292. Forced                                   : No

  293. Text #21
  294. ID                                       : 23
  295. Format                                   : UTF-8
  296. Codec ID                                 : S_TEXT/UTF8
  297. Codec ID/Info                            : UTF-8 Plain Text
  298. Duration                                 : 1 h 25 min
  299. Bit rate                                 : 22 b/s
  300. Count of elements                        : 520
  301. Stream size                              : 14.1 KiB (0%)
  302. Language                                 : Swedish
  303. Default                                  : No
  304. Forced                                   : No

  305. Text #22
  306. ID                                       : 24
  307. Format                                   : UTF-8
  308. Codec ID                                 : S_TEXT/UTF8
  309. Codec ID/Info                            : UTF-8 Plain Text
  310. Duration                                 : 1 h 25 min
  311. Bit rate                                 : 60 b/s
  312. Count of elements                        : 521
  313. Stream size                              : 37.9 KiB (0%)
  314. Language                                 : Thai
  315. Default                                  : No
  316. Forced                                   : No

  317. Text #23
  318. ID                                       : 25
  319. Format                                   : UTF-8
  320. Codec ID                                 : S_TEXT/UTF8
  321. Codec ID/Info                            : UTF-8 Plain Text
  322. Duration                                 : 1 h 25 min
  323. Bit rate                                 : 22 b/s
  324. Count of elements                        : 519
  325. Stream size                              : 14.3 KiB (0%)
  326. Language                                 : Turkish
  327. Default                                  : No
  328. Forced                                   : No

  329. Text #24
  330. ID                                       : 26
  331. Format                                   : UTF-8
  332. Codec ID                                 : S_TEXT/UTF8
  333. Codec ID/Info                            : UTF-8 Plain Text
  334. Duration                                 : 1 h 25 min
  335. Bit rate                                 : 21 b/s
  336. Count of elements                        : 523
  337. Stream size                              : 13.1 KiB (0%)
  338. Title                                    : Simplified
  339. Language                                 : Chinese
  340. Default                                  : No
  341. Forced                                   : No

  342. Text #25
  343. ID                                       : 27
  344. Format                                   : UTF-8
  345. Codec ID                                 : S_TEXT/UTF8
  346. Codec ID/Info                            : UTF-8 Plain Text
  347. Duration                                 : 1 h 25 min
  348. Bit rate                                 : 20 b/s
  349. Count of elements                        : 523
  350. Stream size                              : 13.0 KiB (0%)
  351. Title                                    : Traditional
  352. Language                                 : Chinese
  353. Default                                  : No
  354. Forced                                   : No
復制代碼









分享到:  QQ好友和群QQ好友和群
收藏收藏
VIP會員免費任意下載本站所有資源!---點擊開通
回復

使用道具 舉報

懶得打字嘛,點擊右側快捷回復 【右側內容,后臺自定義】
您需要登錄后才可以回帖 登錄 | 立即注冊

本版積分規則

QQ|Archiver|手機版|小黑屋| 中國高清網 |網站地圖

GMT+8, 2019-12-9 10:29 , Processed in 0.183868 second(s), 36 queries .

Powered by HDchina X3.4

Copyright 2017-2019©HDchina.All right reserved

返回頂部 聯系我們
胜负彩19080期