查看: 22|回復: 0
打印 上一主題 下一主題

[動畫片] 巨人與小精靈的奇幻冒險 Elf.on.the.Run.2016.DUBBED.1080p.AMZN.WEBRip.DDP2.0.x264-monkee 2.79GB

[復制鏈接]

 成長值: 3400

級別:資源管理組

注冊時間
2017-10-20
最后登錄
2019-12-9
聽眾
1
收聽
0
主題
88290
藍光幣
69430 枚
貢獻
12652 點
跳轉到指定樓層
樓主
發表于 2019-11-2 21:23:10 | 只看該作者 |只看大圖 回帖獎勵 |倒序瀏覽 |閱讀模式


譯  名 巨人與小精靈的奇幻冒險 / Teresa & Tim
片  名 Teresa eta Galtzagorri
年  代 2016
產  地 西班牙
類  別 動畫 / 奇幻 / 冒險
語  言 巴斯克語
上映日期 2017-01-27(西班牙)
IMDb評分  6.2/10 from 16 users
IMDb鏈接  http://www.imdb.com/title/tt6447022
豆瓣評分 0/10 from 0 users
豆瓣鏈接 https://movie.douban.com/subject/27007780/
片  長 95分鐘
導  演 Agurtzane Intxaurraga
編  劇 Joseba Beristain / Juan Luis Carreras
主  演 Aintzane Krujeiras
       Angel Alkain
       Joinaz Jáuregui
       Ramón Zalakain
       I?aki Beraetxe
       Mikel Hernández


標  簽 童話 | 溫情

簡  介  

  Every year, the elves come from his magical world to bring humans a new spring. Tim is a new one this year. Distracted by the attractive sound of the fair, he wanders away from the other elves, being captured by former trapeze artist Samuel, who brings him to Vladimir, owner of a circus who exploits him as a fairground attraction. Teresa, a naughty 6-year-old girl, is jealous of her little brother, baby Jon. When visiting the fair, she discovers Tim while he is being exhibited and she will become infatuated with him. Tim, at the same time, will see in her an opportunity to escape. Hidden in Teresa's house and protected by her, they live several adventures, becoming inseparable friends. Over time, matching with the end of the spring, Tim begins to transform in a Little tree. He has been away from his world and his people for too long, and only by helping him to return will Tim be saved. There is no time to lose, but be careful: Vladimir is lurking.

獲獎情況  

  第31屆西班牙戈雅獎(2017)
  最佳動畫片(提名)
  1. Video
  2. ID                                       : 1
  3. Format                                   : AVC
  4. Format/Info                              : Advanced Video Codec
  5. Format profile                           : [email protected]
  6. Format settings                          : CABAC / 4 Ref Frames
  7. Format settings, CABAC                   : Yes
  8. Format settings, Reference frames        : 4 frames
  9. Codec ID                                 : V_MPEG4/ISO/AVC
  10. Duration                                 : 1 h 10 min
  11. Bit rate mode                            : Variable
  12. Bit rate                                 : 5 457 kb/s
  13. Maximum bit rate                         : 15.0 Mb/s
  14. Width                                    : 1 920 pixels
  15. Height                                   : 1 080 pixels
  16. Display aspect ratio                     : 16:9
  17. Frame rate mode                          : Constant
  18. Frame rate                               : 23.976 (24000/1001) FPS
  19. Color space                              : YUV
  20. Chroma subsampling                       : 4:2:0
  21. Bit depth                                : 8 bits
  22. Scan type                                : Progressive
  23. Bits/(Pixel*Frame)                       : 0.110
  24. Stream size                              : 2.68 GiB (96%)
  25. Default                                  : Yes
  26. Forced                                   : No
  27. Color range                              : Limited
  28. Color primaries                          : BT.709
  29. Transfer characteristics                 : BT.709
  30. Matrix coefficients                      : BT.709

  31. Audio
  32. ID                                       : 2
  33. Format                                   : E-AC-3
  34. Format/Info                              : Enhanced AC-3
  35. Commercial name                          : Dolby Digital Plus
  36. Codec ID                                 : A_EAC3
  37. Duration                                 : 1 h 10 min
  38. Bit rate mode                            : Constant
  39. Bit rate                                 : 224 kb/s
  40. Channel(s)                               : 2 channels
  41. Channel layout                           : L R
  42. Sampling rate                            : 48.0 kHz
  43. Frame rate                               : 31.250 FPS (1536 SPF)
  44. Compression mode                         : Lossy
  45. Stream size                              : 113 MiB (4%)
  46. Language                                 : English
  47. Service kind                             : Complete Main
  48. Default                                  : Yes
  49. Forced                                   : No

  50. Text #1
  51. ID                                       : 3
  52. Format                                   : UTF-8
  53. Codec ID                                 : S_TEXT/UTF8
  54. Codec ID/Info                            : UTF-8 Plain Text
  55. Duration                                 : 1 h 8 min
  56. Bit rate                                 : 89 b/s
  57. Count of elements                        : 1759
  58. Stream size                              : 44.8 KiB (0%)
  59. Language                                 : English
  60. Default                                  : No
  61. Forced                                   : No

  62. Text #2
  63. ID                                       : 4
  64. Format                                   : UTF-8
  65. Codec ID                                 : S_TEXT/UTF8
  66. Codec ID/Info                            : UTF-8 Plain Text
  67. Duration                                 : 1 h 8 min
  68. Bit rate                                 : 97 b/s
  69. Count of elements                        : 1924
  70. Stream size                              : 48.5 KiB (0%)
  71. Title                                    : SDH
  72. Language                                 : English
  73. Default                                  : No
  74. Forced                                   : No
復制代碼









分享到:  QQ好友和群QQ好友和群
收藏收藏
VIP會員免費任意下載本站所有資源!---點擊開通
回復

使用道具 舉報

懶得打字嘛,點擊右側快捷回復 【右側內容,后臺自定義】
您需要登錄后才可以回帖 登錄 | 立即注冊

本版積分規則

QQ|Archiver|手機版|小黑屋| 中國高清網 |網站地圖

GMT+8, 2019-12-9 10:32 , Processed in 0.230069 second(s), 36 queries .

Powered by HDchina X3.4

Copyright 2017-2019©HDchina.All right reserved

返回頂部 聯系我們
胜负彩19080期