查看: 254|回復: 10
打印 上一主題 下一主題

[動作片] 逍遙法圍/貓鼠游戲[國英雙語中字] Catch.Me.If.You.Can.2002.BluRay.1080p.x265.10bit.2Audio.MNHD-FRDS\Catch.Me.If. You.Can.2002.BluRay.1080p.x265.10bit.2Audio.MNHD-FRDS 9.22GB

[復制鏈接]

 成長值: 3900

級別:資源管理組

注冊時間
2017-10-20
最后登錄
2020-1-28
聽眾
1
收聽
0
主題
90917
藍光幣
86374 枚
貢獻
15279 點
跳轉到指定樓層
樓主
發表于 2019-11-2 21:25:05 | 只看該作者 |只看大圖 回帖獎勵 |倒序瀏覽 |閱讀模式



譯  名 貓鼠游戲 / 我知道你是誰 / 捉智雙雄(港) / 有種來抓我 / 神鬼交鋒(臺) / 逍遙法圍
片  名 Catch Me If You Can
年  代 2002
產  地 美國 / 加拿大
類  別 劇情 / 傳記 / 犯罪
語  言 英語 / 法語
上映日期 2002-12-16(洛杉磯首映) / 2002-12-25(美國)
IMDb評分  8.1/10 from 742791 users
IMDb鏈接  https://www.imdb.com/title/tt0264464
豆瓣評分 8.9/10 from 443663 users
豆瓣鏈接 https://movie.douban.com/subject/1305487/
片  長 141 分鐘
導  演 史蒂文·斯皮爾伯格 Steven Spielberg
編  劇 杰夫·內拿森 Jeff Nathanson
主  演 萊昂納多·迪卡普里奧 Leonardo DiCaprio
       湯姆·漢克斯 Tom Hanks
       克里斯托弗·沃肯 Christopher Walken
       馬丁·辛 Martin Sheen
       艾米·亞當斯 Amy Adams
       珍妮弗·加納 Jennifer Garner
       伊麗莎白·班克斯 Elizabeth Banks
       納塔莉·貝伊 Nathalie Baye
       詹姆斯·布洛林 James Brolin
       艾倫·旁派 Ellen Pompeo
       Nancy Lenehan
       布萊恩·豪威  Brian Howe
       弗蘭克·約翰·休斯 Frank John Hughes
       Chris Ellis


標  簽 犯罪 | 美國 | 劇情 | 萊昂納多·迪卡普里奧 | LeonardoDiCaprio | 斯皮爾伯格 | 湯姆·漢克斯 | TomHanks

簡  介  

  弗蘭克(萊昂納多·迪卡普里奧 Leonardo DiCaprio飾)是FBI有史以來年齡最小的通緝犯。他的犯罪手段神通廣大,偽裝身份的能力超乎常人,全美各地幾乎都留下他的犯罪足跡。喬裝醫生、律師、飛行員,統統都是他曾經的身份。當然,弗蘭克憑著這個“本領”,騙取了高達幾百萬的金額。
  活得逍遙快樂的弗蘭克這次又成功偽造了一份妹歷證明,去醫院做起了大夫。弗蘭克不但在這里認識了護士布雷達(艾米·亞當斯 Amy Adams飾),二人擦出愛火花,還通過布雷達的父親得到了一份檢察官助理的優差。然而,這只是暴風雨前夕——一雙眼睛已經盯住了弗蘭克,誓要把他繩之于法不可。這就是FBI探員卡爾(湯姆·漢克斯 Tom Hanks飾)。
  在研究追捕弗蘭克的過程中,卡爾領教到這個犯罪天才的過人智商。他屢次被弗蘭克這個黃毛小子捉弄,心里又恨又不得不佩服。每當弗蘭克有驚無險地從他的精心布局中逃脫時,這個貓鼠游戲顯得有趣起來……

獲獎情況  

  第75屆奧斯卡金像獎(2003)
  最佳男配角(提名) 克里斯托弗·沃肯
  最佳原創配樂(提名) 約翰·威廉姆斯

  第56屆英國電影妹院獎(2003)
  電影獎 最佳男配角 克里斯托弗·沃肯
  電影獎 最佳改編劇本(提名) 杰夫·內拿森
  電影獎 最佳服裝設計(提名) 瑪麗·索弗瑞斯
  電影獎 最佳原創音樂(提名) 約翰·威廉姆斯


  1. General
  2. Unique ID : 246830890438665243674714876662877885164 (0xB9B1E67AAFF060CE8CFD9A053D3592EC)
  3. Complete name : F:\貓鼠游戲.Catch.Me.If.You.Can.2002.BluRay.1080p.x265.10bit.2Audio.MNHD-FRDS\Catch.Me.If. You.Can.2002.BluRay.1080p.x265.10bit.2Audio.MNHD-FRDS.mkv
  4. Format : Matroska
  5. Format version : Version 4 / Version 2
  6. File size : 9.22 GiB
  7. Duration : 2 h 20 min
  8. Overall bit rate : 9 383 kb /s
  9. Encoded date : UTC 2017-06-29 05:14:14
  10. Writing application : mkvmerge v11.0.0 ('Alive') 64bit
  11. Writing library : libebml v1.3.4 + libmatroska v1.4.5

  12. Video
  13. ID : 1
  14. Format : HEVC
  15. Format/Info : High Efficiency Video Coding
  16. Codec ID : V_MPEGH/ISO/HEVC
  17. Duration : 2 h 20 min
  18. Bit rate : 8 171 kb/s
  19. Width : 1 920 pixels
  20. Height : 1 036 pixels
  21. Display aspect ratio : 1.85:1
  22. Frame rate mode : Constant
  23. Frame rate : 23.976 (24000/1001) FPS
  24. Bits/(Pixel*Frame) : 0.171
  25. Stream size : 8.03 GiB (87%)
  26. Default : Yes
  27. Forced : No

  28. Audio #1
  29. ID : 2
  30. Format : AC-3
  31. Format/Info : Audio Coding 3
  32. Format settings, Endianness : Big
  33. Codec ID : A_AC3
  34. Duration : 2 h 20 min
  35. Bit rate mode : Constant
  36. Bit rate : 640 kb/s
  37. Channel (s) : 6 channels
  38. Channel positions : Front: LCR, Side: LR, LFE
  39. Sampling rate : 48.0 kHz
  40. Frame rate : 31.250 FPS (1536 spf)
  41. Bit depth : 16 bits
  42. Compression mode : Lossy
  43. Stream size : 644 MiB (7%)
  44. Language : English
  45. Service kind : Complete Main
  46. Default : No
  47. Forced : No

  48. Audio #2
  49. ID : 3
  50. Format : AC-3
  51. Format/Info : Audio Coding 3
  52. Format settings, Endianness : Big
  53. Codec ID : A_AC3
  54. Duration : 2 h 20 min
  55. Bit rate mode : Constant
  56. Bit rate : 448 kb/s
  57. Channel(s) : 6 channels
  58. Channel positions : Front: LCR, Side: LR, LFE
  59. Sampling rate : 48.0 kHz
  60. Frame rate : 31.250 FPS (1536 spf)
  61. Bit depth : 16 bits
  62. Compression mode : Lossy
  63. Stream size : 451 MiB (5%)
  64. Language : Chinese
  65. Service kind : Complete Main
  66. Default : Yes
  67. Forced : No

  68. Text #1
  69. ID : 4
  70. Format : PGS
  71. Muxing mode : zlib
  72. Codec ID : S_HDMV/PGS
  73. Codec ID/Info : Picture based subtitle format used on BDs/HD-DVDs
  74. Duration : 2 h 12 min
  75. Bit rate : 11.8 kb/s
  76. Count of elements : 3459
  77. Stream size : 11.2 MiB (0%)
  78. Language : English
  79. Default : Yes
  80. Forced : No

  81. Text #2
  82. ID : 5
  83. Format : PGS
  84. Muxing mode : zlib
  85. Codec ID : S_HDMV/PGS
  86. Codec ID/Info : Picture based subtitle format used on BDs/HD-DVDs
  87. Duration : 2 h 14 min
  88. Bit rate : 12.6 kb/s
  89. Count of elements : 3777
  90. Stream size : 12.1 MiB (0%)
  91. Language : English
  92. Default : No
  93. Forced : No

  94. Text #3
  95. ID : 6
  96. Format : PGS
  97. Muxing mode : zlib
  98. Codec ID : S_HDMV/PGS
  99. Codec ID/Info : Picture based subtitle format used on BDs/HD-DVDs
  100. Duration : 2 h 13 min
  101. Bit rate : 24.2 kb/s
  102. Count of elements : 3030
  103. Stream size : 23.0 MiB (0%)
  104. Language : Chinese
  105. Default : No
  106. Forced : No

  107. Text #4
  108. ID : 7
  109. Format : PGS
  110. Muxing mode : zlib
  111. Codec ID : S_HDMV/PGS
  112. Codec ID/Info : Picture based subtitle format used on BDs/ HD-DVDs
  113. Duration : 2 h 13 min
  114. Bit rate : 21.4 kb/s
  115. Count of elements : 3030
  116. Stream size : 20.4 MiB (0%)
  117. Language : Chinese
  118. Default : No
  119. Forced : No

  120. Text #5
  121. ID : 8
  122. Format : PGS
  123. Muxing mode : zlib
  124. Codec ID : S_HDMV/PGS
  125. Codec ID/Info : Picture based subtitle format used on BDs/HD-DVDs
  126. Duration : 2 h 13 min
  127. Bit rate : 36.6 kb/s
  128. Count of elements : 3031
  129. Stream size : 34.8 MiB (0%)
  130. Language : Chinese
  131. Default : No
  132. Forced : No

  133. Text #6
  134. ID : 9
  135. Format : PGS
  136. Muxing mode : zlib
  137. Codec ID : S_HDMV/PGS
  138. Codec ID/Info : Picture based subtitle format used on BDs/HD-DVDs
  139. Duration : 1 h 15 min
  140. Bit rate : 38.1 kb/s
  141. Count of elements : 1883
  142. Stream size : 20.6 MiB (0%)
  143. Language : Chinese
  144. Default : No
  145. Forced : No

  146. Menu
  147. 00:00:00.000 : en:Chapter 01
  148. 00:04:43.908 : en:Chapter 02
  149. 00:10:59.450 : en:Chapter 03
  150. 00:18:35.280 : en:Chapter 04
  151. 00:25:56.429 : en:Chapter 05
  152. 00:28:58.737 : en:Chapter 06
  153. 00:33:59.662 : en:Chapter 07
  154. 00:38:37.064 : en:Chapter 08
  155. 00:42:09.944 : en:Chapter 09
  156. 00:49:06.068 : en:Chapter 10
  157. 00:56:54.869 : en:Chapter 11
  158. 01:03:42.527 : en:Chapter 12
  159. 01:10:05.951 : en:Chapter 13
  160. 01:22:26.733 : en:Chapter 14
  161. 01:32:10.399 : en:Chapter 15
  162. 01:38:26.066 : en:Chapter 16
  163. 01:43:32.581 : en:Chapter 17
  164. 01:49:50.417 : en:Chapter 18
  165. 01:58:00.907 : en:Chapter 19
  166. 02:04:01.475 : en:Chapter 20
  167. 02:12:33.278 : en:Chapter 21
  168. 02:16:00.193 : en:Chapter 22
復制代碼












分享到:  QQ好友和群QQ好友和群
收藏收藏1
VIP會員免費任意下載本站所有資源!---點擊開通
回復

使用道具 舉報

已拋錨 成長值: 930

級別:領銜主演 Lv.6

注冊時間
2018-7-22
最后登錄
2020-1-28
聽眾
19
收聽
0
主題
1
藍光幣
2292 枚
貢獻
1 點
沙發
發表于 2019-11-2 22:38:49 | 只看該作者
小李子的片子都挺不錯的
VIP會員免費任意下載本站所有資源!---點擊開通
回復

使用道具 舉報

級別:群眾演員 Lv.3

注冊時間
2019-4-24
最后登錄
2020-1-26
聽眾
14
收聽
0
主題
0
藍光幣
180 枚
貢獻
0 點
板凳
發表于 2019-11-3 11:10:33 | 只看該作者

這東西我收了!謝謝樓主!中國高清電影網真好!
VIP會員免費任意下載本站所有資源!---點擊開通
回復

使用道具 舉報

級別:專業龍套 Lv.4

注冊時間
2019-10-27
最后登錄
2020-1-27
聽眾
1
收聽
0
主題
0
藍光幣
181 枚
貢獻
0 點
地板
發表于 2019-11-3 23:03:04 | 只看該作者

樓主太厲害了!樓主,電影應該很好看我覺得中國高清電影網真是個好地方!
VIP會員免費任意下載本站所有資源!---點擊開通
回復

使用道具 舉報

級別:初級觀眾 Lv.1

注冊時間
2019-11-25
最后登錄
2020-1-26
聽眾
1
收聽
0
主題
0
藍光幣
0 枚
貢獻
0 點
5#
發表于 2019-11-25 23:13:28 | 只看該作者
樓主發貼辛苦了,謝謝樓主分享!我覺得中國高清電影網是注冊對了!
VIP會員免費任意下載本站所有資源!---點擊開通
回復

使用道具 舉報

級別:初級觀眾 Lv.1

注冊時間
2019-11-27
最后登錄
2019-11-27
聽眾
0
收聽
0
主題
0
藍光幣
0 枚
貢獻
0 點
QQ
6#
發表于 2019-11-27 09:49:31 | 只看該作者
樓主發貼辛苦了,謝謝樓主分享!我覺得中國高清電影網是注冊對了!
VIP會員免費任意下載本站所有資源!---點擊開通
回復

使用道具 舉報

級別:普通觀眾 Lv.2

注冊時間
2019-11-22
最后登錄
2020-1-5
聽眾
1
收聽
0
主題
0
藍光幣
1 枚
貢獻
0 點
7#
發表于 2019-11-27 15:42:26 | 只看該作者
樓主發貼辛苦了,謝謝樓主分享!我覺得中國高清電影網是注冊對了!
VIP會員免費任意下載本站所有資源!---點擊開通
回復

使用道具 舉報

級別:群眾演員 Lv.3

注冊時間
2019-11-6
最后登錄
2020-1-28
聽眾
1
收聽
0
主題
0
藍光幣
207 枚
貢獻
0 點
QQ
8#
發表于 2019-11-30 15:09:58 | 只看該作者

樓主發貼辛苦了,謝謝樓主分享!我覺得中國高清電影網是注冊對了!
VIP會員免費任意下載本站所有資源!---點擊開通
回復

使用道具 舉報

級別:普通觀眾 Lv.2

注冊時間
2019-11-22
最后登錄
2020-1-5
聽眾
1
收聽
0
主題
0
藍光幣
1 枚
貢獻
0 點
9#
發表于 2019-12-4 12:15:58 | 只看該作者

這個帖子不回對不起自己!我想我是一天也不能離開中國高清電影網
VIP會員免費任意下載本站所有資源!---點擊開通
回復

使用道具 舉報

 成長值: 595

級別:尊貴的會員

注冊時間
2019-11-29
最后登錄
2020-1-28
聽眾
1
收聽
0
主題
0
藍光幣
71 枚
貢獻
0 點
10#
發表于 2019-12-22 23:22:22 | 只看該作者
樓主發貼辛苦了,謝謝樓主分享!我覺得中國高清電影網是注冊對了!
VIP會員免費任意下載本站所有資源!---點擊開通
回復

使用道具 舉報

懶得打字嘛,點擊右側快捷回復 【右側內容,后臺自定義】
您需要登錄后才可以回帖 登錄 | 立即注冊

本版積分規則

Archiver|手機版|小黑屋| 中國高清網 |網站地圖

GMT+8, 2020-1-28 17:30 , Processed in 0.523758 second(s), 37 queries .

Powered by HDchina X3.4

Copyright 2017-2019©HDchina.All right reserved

返回頂部 聯系我們
胜负彩19080期